<?xml version="1.0" standalone="no"?>
<!DOCTYPE svg PUBLIC "-//W3C//DTD SVG 1.1//EN" "http://www.w3.org/Graphics/SVG/1.1/DTD/svg11.dtd" >
<!--
2019-8-11: Created with FontForge (http://fontforge.org)
-->
<svg xmlns="http://www.w3.org/2000/svg" xmlns:xlink="http://www.w3.org/1999/xlink" version="1.1">
<metadata>
Created by FontForge 20170731 at Sun Aug 11 14:44:06 2019
 By root

</metadata>
<defs>
<font id="Flaticon" horiz-adv-x="512" >
  <font-face 
    font-family="Flaticon"
    font-weight="400"
    font-stretch="normal"
    units-per-em="512"
    panose-1="2 0 5 3 0 0 0 0 0 0"
    ascent="448"
    descent="-64"
    bbox="-0.00386629 -64.002 513.002 448"
    underline-thickness="25.6"
    underline-position="-51.2"
    unicode-range="U+0020-F141"
  />
    <missing-glyph />
    <glyph glyph-name="space" unicode=" " horiz-adv-x="200" 
 />
    <glyph glyph-name="039-box-7" unicode="&#xf126;" 
d="M505.17 242.936c3.99121 -1.49512 6.62891 -5.31543 6.61816 -9.57715c-0.00976562 -4.26074 -2.66992 -8.06738 -6.66797 -9.54297l-83.9219 -30.9658v-109.971c0 -4.26953 -2.6582 -8.08594 -6.66211 -9.56641l-155.025 -57.3174l-0.00390625 0.00488281
c-1.13379 -0.417969 -2.33008 -0.636719 -3.5332 -0.636719c-1.19141 0 -2.38867 0.208984 -3.53613 0.632812l-155.025 57.3164c-4.00391 1.48047 -6.66211 5.29688 -6.66211 9.56641v110.271l-84.082 31.0254c-4.00586 1.47754 -6.66602 5.29492 -6.66797 9.56348
c-0.00195312 4.26953 2.65625 8.08789 6.66016 9.57031l64.9824 24.0381l-64.623 24.0713c-3.99707 1.48926 -6.64648 5.30957 -6.63965 9.57422c0.00683594 4.2666 2.66602 8.07617 6.66797 9.55273l155.339 57.3184c2.28613 0.842773 4.79883 0.841797 7.08203 -0.0078125
l86.5088 -32.1436l86.9346 32.2871c2.28223 0.84668 4.79395 0.850586 7.08105 0.00683594l155.34 -57.3174c4.00195 -1.47754 6.66211 -5.28906 6.66797 -9.55371c0.00585938 -4.26562 -2.64258 -8.08496 -6.64062 -9.57324l-65.2041 -24.2764zM346.475 347.562
l-61.1904 -22.7275l125.712 -46.6406l61.458 22.8828zM39.9199 300.933l61.0381 -22.7373l125.717 46.6436l-60.7705 22.5791zM39.6289 233.756l125.903 -46.4561l61.0654 22.5859l-125.649 46.5537zM245.776 40.207v155.022l-76.7021 -28.3701
c-1.14062 -0.421875 -2.33984 -0.632812 -3.53711 -0.632812c-1.19629 0 -2.39258 0.209961 -3.53125 0.629883l-50.8564 18.7656v-95.6406zM255.977 220.754l125.686 46.5674l-116.483 43.2178v-37.9648c0 -5.63281 -4.56738 -10.1992 -10.1992 -10.1992
s-10.1992 4.56641 -10.1992 10.1992v37.2275l-114.491 -42.4805zM400.803 89.9824v95.3398l-51.0166 -18.8252c-1.13867 -0.419922 -2.33594 -0.629883 -3.53125 -0.629883c-1.21289 0 -2.42383 0.217773 -3.57617 0.648438l-76.5029 28.6523v-154.96l134.627 49.7744v0z
M346.281 186.947l126.042 46.5078l-61.3408 22.9756l-125.789 -46.6055zM254.979 254.216c5.63184 0 10.1992 -4.56641 10.1992 -10.1992v-2.04004c0 -5.63281 -4.56738 -10.1992 -10.1992 -10.1992s-10.1992 4.56641 -10.1992 10.1992v2.04004
c0 5.63281 4.56738 10.1992 10.1992 10.1992z" />
    <glyph glyph-name="041-box-8" unicode="&#xf128;" 
d="M504.013 253.964c5.00293 -2.88672 8.05078 -8.27539 7.98633 -14.0479c-0.0644531 -5.80566 -3.27148 -11.0977 -8.33887 -13.8887l-54.6221 -29.9893v-132.337c0 -5.87012 -3.20801 -11.29 -8.33984 -14.0488l-176.407 -96.2217
c-0.192383 -0.0966797 -0.416992 -0.0644531 -0.609375 -0.161133c-2.18066 -1.08984 -4.52246 -1.82812 -7.08789 -1.82812c-2.56641 0 -4.90723 0.738281 -7.05664 1.82812c-0.192383 0.0966797 -0.416992 0.0644531 -0.609375 0.161133l-176.407 96.2217
c-5.16406 2.75879 -8.37109 8.17871 -8.37109 14.0488v131.695l-55.8096 30.6309c-5.06738 2.79102 -8.27441 8.08301 -8.33887 13.8887c-0.0644531 5.77246 2.9834 11.1611 7.98633 14.0801l45.1924 26.2686l-45.1924 26.1729
c-5.00293 2.88672 -8.05078 8.24316 -7.98633 14.0801c0.0644531 5.77344 3.27148 11.0977 8.40332 13.8564l176.407 96.2217c4.90723 2.69434 10.9375 2.59766 15.7168 -0.192383l55.4873 -32.2666l55.4883 32.2666c4.84375 2.79004 10.8408 2.85449 15.7168 0.192383
l176.407 -96.2217c5.09961 -2.75879 8.30664 -8.05078 8.37109 -13.8564c0.0644531 -5.83691 -2.9834 -11.1934 -7.98633 -14.1123l-45.1924 -26.1729zM319.812 398.104l-31.8818 -18.5381l138.913 -80.7305l36.4033 21.0723zM48.7852 319.876l36.3721 -21.04
l138.945 80.6982l-31.8818 18.5381zM48.6572 240.525l142.377 -78.2285l32.9395 19.0518l-138.816 80.377zM240.557 -5.51465v159.407l-41.2471 -23.8945c-2.50195 -1.44336 -5.26074 -2.14941 -8.05078 -2.14941c-2.66211 0 -5.32422 0.673828 -7.69824 1.98926
l-87.3379 47.9502v-104.562zM255.984 199.919l138.88 80.4102l-138.88 80.6982l-138.881 -80.6982zM416.964 73.2266v105.203l-88.5244 -48.5918c-2.37402 -1.31543 -5.03613 -1.98926 -7.69824 -1.98926c-2.79004 0 -5.54883 0.706055 -8.05078 2.18164l-40.0596 23.1895
v-158.734zM320.966 162.328l142.377 78.1973l-36.5 21.2324l-138.816 -80.377z" />
    <glyph glyph-name="029-box-1" unicode="&#xf11c;" 
d="M510.601 249.935c1.53613 -2.89648 1.82031 -6.29102 0.789062 -9.40332c-1.03223 -3.10938 -3.29297 -5.66113 -6.25488 -7.06152l-40.0508 -18.9326c0.00488281 -0.154297 0.0224609 -0.307617 0.0224609 -0.463867v-121.309
c0 -4.60254 -2.63379 -8.79883 -6.78027 -10.7988l-196.621 -94.8945c-0.0244141 -0.0117188 -0.0488281 -0.0107422 -0.0751953 -0.0175781c-1.62109 -0.769531 -3.37402 -1.1748 -5.1377 -1.1748c-1.77734 0 -3.55859 0.394531 -5.21094 1.19141l-196.621 94.8945
c-4.14648 1.99902 -6.78027 6.19629 -6.78027 10.7988v121.32l-41.0137 19.3867c-2.96191 1.39941 -5.22266 3.95215 -6.25488 7.06152c-1.03223 3.11035 -0.748047 6.50684 0.788086 9.40234l47.1377 88.8115c1.60059 3.01562 4.3291 5.09082 7.42188 5.93945
c0.0234375 0.00585938 0.0380859 0.0136719 0.0595703 0.0195312l197.364 53.0078c2.04297 0.547852 4.19434 0.544922 6.23535 -0.00488281l196.377 -53.0068c0.0214844 -0.00585938 0.0341797 -0.0136719 0.0546875 -0.0185547
c3.08789 -0.851562 5.8125 -2.92383 7.41211 -5.93652zM256.485 373.712l-157.923 -42.4141l157.438 -58.3477l157.513 58.376zM64.8018 318.232l-36.3281 -68.4473l172.843 -81.7051l38.5586 85.2686zM71.8633 100.292l172.638 -83.3203v188.4l-26.3564 -58.2861
c-1.3252 -2.93066 -3.77051 -5.20605 -6.79004 -6.31543c-1.33789 -0.492188 -2.73926 -0.736328 -4.1377 -0.736328c-1.75488 0 -3.50684 0.386719 -5.125 1.15137l-130.229 61.5605v-102.454zM441.122 100.292v102.92l-131.214 -62.0264
c-1.61816 -0.766602 -3.36914 -1.15137 -5.125 -1.15137c-1.39844 0 -2.7998 0.244141 -4.1377 0.736328c-3.01953 1.11133 -5.46484 3.38477 -6.79004 6.31543l-25.3711 56.1064v-186.221zM310.684 168.081l172.843 81.7051l-36.3291 68.4473l-175.073 -64.8838z" />
    <glyph glyph-name="058-cargo-1" unicode="&#xf139;" 
d="M509.904 230.86c5.59082 -12.9629 -0.386719 -28.0039 -13.3486 -33.5947l-173.69 -74.9062c-12.9619 -5.5918 -28.0049 0.382812 -33.5947 13.3477l-74.9062 173.691c-5.5918 12.9639 0.386719 28.0049 13.3477 33.5938l173.691 74.9072
c12.9629 5.58887 28.0049 -0.385742 33.5938 -13.3486zM452.214 115.045c12.9629 5.58789 28.0049 -0.384766 33.5928 -13.3477c5.59082 -12.9648 -0.386719 -28.0049 -13.3486 -33.5947l-112.031 -48.3164c-3.20898 17.3535 -10.6611 33.2266 -21.252 46.5088z
M102.45 422.591l137.041 -317.76c-17.4434 -2.83887 -33.46 -9.95898 -46.9434 -20.248l-126.918 294.291l-29.9395 -12.9121c-12.96 -5.59277 -28.0049 0.384766 -33.5947 13.3477c-5.59082 12.9629 0.386719 28.0039 13.3486 33.5928l53.4131 23.0361
c6.22461 2.6875 13.2607 2.79004 19.5605 0.283203c6.30078 -2.50391 11.3477 -7.4082 14.0322 -13.6309zM201.963 0.535156c0 30.1357 24.4297 54.5654 54.5654 54.5654s54.5645 -24.4297 54.5645 -54.5654c0 -30.1348 -24.4287 -54.5645 -54.5645 -54.5645
s-54.5654 24.4297 -54.5654 54.5645z" />
    <glyph glyph-name="048-tracking" unicode="&#xf12f;" 
d="M477.656 173.656c1.29297 -1.29297 2.34375 -3.82715 2.34375 -5.65625v-88c0 -13.248 -10.752 -24 -24 -24h-16.6396c-3.83691 -26.4453 -28.6387 -47.9492 -55.3604 -48h-384v16h120.888c-7.48242 7.30957 -14.7617 21.6455 -16.248 32h-16.6396
c-13.248 0 -24 10.752 -24 24v72h16v-72c0 -4.41602 3.58398 -8 8 -8h16.6396c3.80371 26.4834 28.6055 47.9775 55.3604 47.9775s51.5566 -21.4941 55.3604 -47.9775h113.279c3.80371 26.4834 28.6055 47.9775 55.3604 47.9775s51.5566 -21.4941 55.3604 -47.9775h16.6396
c4.41602 0 8 3.58398 8 8v64h-120c-8.83203 0 -16 7.16797 -16 16v72c0 8.83203 7.16797 16 16 16h36.6885l-13.6562 13.6562c-1.29395 1.29395 -3.82812 2.34375 -5.6582 2.34375h-0.00585938h-81.3682v-120h-16v120h-40v16h137.368h0.0751953
c5.47266 0 13.0439 -3.15039 16.9004 -7.03223zM120 64c0.0263672 -22.0537 17.9463 -39.9736 40 -40c22.0801 0 40 17.9199 40 40s-17.9199 40 -40 40s-40 -17.9199 -40 -40zM199.112 24h145.775c-7.48242 7.30957 -14.7617 21.6455 -16.248 32h-113.279
c-1.48633 -10.3545 -8.76562 -24.6904 -16.248 -32zM384 24c22.0537 0.0263672 39.9736 17.9463 40 40c0 22.0801 -17.9199 40 -40 40s-40 -17.9199 -40 -40s17.9199 -40 40 -40zM344 160h120v4.68848l-67.3115 67.3115h-52.6885v-72zM152 56v16h16v-16h-16zM376 56v16h16
v-16h-16zM0 80v16h40v-16h-40zM16 112v16h24v-16h-24zM24 144v16h16v-16h-16zM104 168c-57.3418 0.0664062 -103.934 46.6582 -104 104c0 57.4082 46.5918 104 104 104s104 -46.5918 104 -104s-46.5918 -104 -104 -104zM104 360
c-48.5186 -0.0576172 -87.9424 -39.4814 -88 -88c0 -48.5762 39.4238 -88 88 -88s88 39.4238 88 88s-39.4238 88 -88 88zM104 200c-1.8291 0 -4.36328 1.05078 -5.65625 2.34375c-5.15137 5.15234 -50.3438 51.3359 -50.3438 85.6562c0 30.9121 25.0879 56 56 56
s56 -25.0879 56 -56c0 -34.3203 -45.1924 -80.5039 -50.3438 -85.6562c-1.29297 -1.29297 -3.82715 -2.34375 -5.65625 -2.34375zM104 328c-22.0537 -0.0263672 -39.9736 -17.9463 -40 -40c0 -20.5283 25.1758 -52.248 40 -68.4082c14.8242 16.1602 40 47.8799 40 68.4082
c-0.0263672 22.0537 -17.9463 39.9736 -40 40zM128 288c0 -13.248 -10.752 -24 -24 -24s-24 10.752 -24 24s10.752 24 24 24s24 -10.752 24 -24zM96 288c0 -4.41602 3.58398 -8 8 -8s8 3.58398 8 8s-3.58398 8 -8 8s-8 -3.58398 -8 -8zM304 112v16h32v-16h-32z" />
    <glyph glyph-name="050-delivery-truck" unicode="&#xf131;" 
d="M9.31055 162.681c-2.52441 0.0234375 -4.93652 1.06348 -6.68652 2.88672c-1.74902 1.82031 -2.69434 4.26758 -2.62109 6.78906v91.54c0.00585938 1.91797 0.597656 3.78516 1.69629 5.35547l7.33203 10.4326l20.1084 28.1943l51.4053 73.582
c1.75586 2.53027 4.63281 4.03516 7.70508 4.04395h79.6055v52.7188c0 5.19043 4.20898 9.39941 9.39355 9.39941h326.108c5.19043 0 9.39648 -4.20898 9.39648 -9.39941v-266.147c0 -5.18945 -4.20605 -9.39551 -9.39648 -9.39551h-59.4873
c-3.30469 -28.4395 -27.3838 -49.8916 -56.0146 -49.8916c-28.624 0 -52.7041 21.4521 -56.0088 49.8916h-182.321c-3.29883 -28.4395 -27.3809 -49.8916 -56.0117 -49.8916c-28.624 0 -52.7129 21.4521 -56.0088 49.8916h-28.1943zM93.3252 134.489v-0.47168
c20.8398 0.256836 37.5938 17.2227 37.5938 38.0586c0 20.7637 -16.8311 37.5938 -37.5938 37.5938c-20.7568 0 -37.5898 -16.8301 -37.5898 -37.5938c0 -20.7568 16.833 -37.5869 37.5898 -37.5869zM387.667 134.489v-0.47168
c20.8398 0.256836 37.5967 17.2227 37.5938 38.0586c0 20.7637 -16.8281 37.5938 -37.5938 37.5938c-20.7598 0 -37.5938 -16.8301 -37.5938 -37.5938c0 -20.7568 16.834 -37.5869 37.5938 -37.5869zM493.771 428.828h-307.122v-23.9619h67.8496
c5.18945 0 9.39844 -4.20898 9.39844 -9.39941c0 -5.18945 -4.20898 -9.39941 -9.39844 -9.39941h-67.8496v-204.592h145.01c3.30176 28.4365 27.3848 49.8848 56.0088 49.8848c28.6309 0 52.7129 -21.4482 56.0176 -49.8848h50.0859v60.1445h-255.152
c-5.18945 0 -9.39844 4.20898 -9.39844 9.39941c0 5.18945 4.20898 9.39551 9.39844 9.39551h255.152v168.413zM93.1396 366.707l-9.58691 -13.4404h52.6299c5.19043 0 9.39648 -4.20898 9.39648 -9.39941v-69.543c0 -5.19043 -4.20605 -9.39355 -9.39648 -9.39355h-114.657
l-2.81836 -4.04102v-79.4141h18.7979c3.2959 28.4365 27.3848 49.8848 56.0088 49.8848c28.6309 0 52.7129 -21.4482 56.0117 -49.8848h18.7959v185.231h-75.1816zM70.3975 334.283l-35.8086 -50.7461h92.1943v50.7461h-56.3857zM70.3975 334.283z" />
    <glyph glyph-name="064-delivery-4" unicode="&#xf13f;" 
d="M214.883 162.471c-5.17676 0 -9.41211 4.17676 -9.41211 9.38184v214.118h49.0879c5.20605 0 9.41211 4.20605 9.41211 9.38184c0 5.20605 -4.20605 9.41211 -9.41211 9.41211h-49.0879v33.5c0 5.14746 4.23535 9.38281 9.41211 9.38281h288.411
c5.17676 0 9.41211 -4.23535 9.41211 -9.38281v-178.029h-274.118c-5.20508 0 -9.41113 -4.17676 -9.41113 -9.41211c0 -5.20605 4.20605 -9.38184 9.41113 -9.38184h273.941v-69.5889c0 -5.20508 -4.23535 -9.38184 -9.44141 -9.38184h-59.5
c-3.0293 -26.0293 -23.5293 -46.5293 -49.5586 -49.5586c-30.9414 -3.61816 -58.9414 18.5586 -62.5293 49.5586h-116.617zM387.735 209.471l0.176758 0.470703c-20.9414 -0.147461 -37.7949 -17.1768 -37.7949 -38.0889c0 -20.7939 16.8242 -37.6172 37.6182 -37.6172
c20.7646 0 37.6172 16.8232 37.6172 37.6172c0 20.7646 -16.8525 37.6182 -37.6172 37.6182zM387.735 209.471zM34.7061 283.383h-28.2939l35.7354 50.7646h84.5293v-50.7646h-91.9707zM34.7061 283.383zM9.20605 162.471h-0.0585938
c-5.20605 0.146484 -9.29492 4.4707 -9.14746 9.64648v91.6182v1.11719h135.794c5.20605 0 9.41211 4.20605 9.41211 9.41211v69.5586c0 5.20605 -4.20605 9.41211 -9.41211 9.41211h-75.2354l19.9414 28.2061c1.76465 2.5293 4.64746 4.05859 7.73535 4.05859h89.5
c5.20605 0 9.38184 -4.23535 9.38184 -9.41211v-204.235c0 -5.20508 -4.17578 -9.38184 -9.38184 -9.38184h-28.2061c-3 -26.0293 -23.5293 -46.5293 -49.5293 -49.5586c-30.9707 -3.61816 -58.9707 18.5586 -62.5586 49.5586h-28.2354zM93.2939 209.471
l-0.0585938 0.470703c-20.8525 -0.324219 -37.5586 -17.2646 -37.5586 -38.0889c0 -20.7939 16.8525 -37.6172 37.6172 -37.6172c20.7939 0 37.6182 16.8232 37.6182 37.6172c0 20.7646 -16.8242 37.6182 -37.6182 37.6182zM93.2939 209.471z" />
    <glyph glyph-name="020-check-box" unicode="&#xf113;" 
d="M256.001 448c141.164 0 255.999 -114.847 256.001 -256.001c0 -141.164 -114.837 -256.001 -256.001 -256.001c-141.154 0 -256.001 114.837 -256.001 256.001c0 141.154 114.847 256.001 256.001 256.001zM237.912 123.638l148.145 148.146l-13.9229 13.9229
l-134.222 -134.223l-74.5352 74.5352l-13.9219 -13.9219z" />
    <glyph glyph-name="012-checked-1" unicode="&#xf10b;" 
d="M0 192c0 140.8 115.2 256 256 256s256 -115.2 256 -256s-115.2 -256 -256 -256s-256 115.2 -256 256zM371.2 281.6l-115.2 -115.199l-115.2 115.199l-44.7998 -44.7998l160 -160l160 160z" />
    <glyph glyph-name="057-truck-3" unicode="&#xf138;" 
d="M164.631 94.668c17.7363 0 32.1602 -14.4258 32.1602 -32.1572c0 -17.7373 -14.4238 -32.1611 -32.1602 -32.1611c-17.7314 0 -32.1553 14.4238 -32.1553 32.1611c0 17.7314 14.4238 32.1572 32.1553 32.1572zM403.592 94.668
c17.7363 0 32.1602 -14.4258 32.1602 -32.1572c0 -17.7373 -14.4238 -32.1611 -32.1602 -32.1611c-17.7314 0 -32.1553 14.4238 -32.1553 32.1611c0 17.7314 14.4238 32.1572 32.1553 32.1572zM484.024 212.233h-57.2236l14.4824 57.9307h25.5625
c9.39062 0 17.0068 -7.5957 17.0391 -16.9824zM427.255 332.917l-50.8896 -210.046c-21.8096 -9.87793 -37.3506 -31.2334 -38.873 -56.3164h-106.758c-2.09961 34.6455 -30.9404 62.1885 -66.1035 62.1885c-35.1602 0 -64.001 -27.543 -66.0996 -62.1885h-11.21
c-5.16895 0 -10.0576 2.34473 -13.292 6.37695c-3.23242 4.03027 -4.45898 9.3125 -3.34082 14.3564l14.1348 63.6035h-67.7842c-9.40918 0 -17.0391 7.62988 -17.0391 17.0391s7.62988 17.0391 17.0391 17.0391h75.3574l8.04688 36.207h-55.291
c-9.41211 0 -17.0391 7.62891 -17.0391 17.0391c0 9.4082 7.62695 17.0391 17.0391 17.0391h62.8623l8.04395 36.2061h-28.7373c-9.40918 0 -17.0391 7.62988 -17.0391 17.0391s7.62988 17.0371 17.0391 17.0371h36.3125l3.2832 14.7705
c1.72949 7.79688 8.64453 13.3428 16.6328 13.3428h267.07c5.16895 0 10.0576 -2.3457 13.2939 -6.37793c3.23145 -4.0293 4.46289 -9.30957 3.34082 -14.3555zM508.776 178.331c3.20312 -4.4375 4.0791 -10.1387 2.36035 -15.334l-28.1152 -84.7666
c-2.05566 -6.19531 -7.32715 -10.415 -13.3438 -11.4355c-2.16699 33.7656 -29.7422 60.7158 -63.7598 61.8945l14.0703 56.2822h78.6914c4.02344 -0.900391 7.63281 -3.22754 10.0967 -6.64062z" />
    <glyph glyph-name="008-checkmark" unicode="&#xf107;" 
d="M306.582 130.75l152.234 152.234c6.82812 -22.0156 10.5156 -45.3984 10.5156 -69.6523c0 -129.602 -105.066 -234.668 -234.664 -234.668c-129.602 0 -234.668 105.066 -234.668 234.668c0 129.598 105.066 234.664 234.668 234.664
c58.0469 0 111.082 -21.1836 152.043 -56.1055l-125.379 -125.375l-45.418 45.3945c-12.0742 12.0977 -28.1602 18.7539 -45.2461 18.7539c-17.0898 0 -33.1758 -6.65625 -45.25 -18.7539c-12.0938 -12.0742 -18.75 -28.1562 -18.75 -45.2461s6.65625 -33.1719 18.75 -45.25
l90.668 -90.6641c12.0742 -12.0977 28.1602 -18.7539 45.2461 -18.7539c17.0898 0 33.1758 6.65625 45.25 18.7539zM306.582 130.75zM261.332 154.664c-5.46094 0 -10.9219 2.08984 -15.082 6.25l-90.6641 90.668c-8.34375 8.33984 -8.34375 21.8242 0 30.1641
c8.33984 8.34375 21.8203 8.34375 30.1641 0l75.582 -75.582l214.254 214.25c8.33984 8.33984 21.8203 8.33984 30.1641 0c8.33984 -8.34375 8.33984 -21.8242 0 -30.168l-229.336 -229.332c-4.15625 -4.16016 -9.62109 -6.25 -15.082 -6.25zM261.332 154.664z" />
    <glyph glyph-name="005-check-mark" unicode="&#xf104;" 
d="M477.675 320.502c22.8818 -39.2197 34.3252 -82.0557 34.3242 -128.503c0 -46.4414 -11.4424 -89.2764 -34.3291 -128.5c-22.8906 -39.2197 -53.9424 -70.2803 -93.1631 -93.167c-39.2227 -22.8887 -82.0596 -34.333 -128.504 -34.333s-89.2764 11.4443 -128.502 34.333
c-39.2227 22.8945 -70.2754 53.9473 -93.167 93.167c-22.8877 39.2275 -34.334 82.0557 -34.334 128.5c0 46.4424 11.4434 89.2783 34.3369 128.503c22.8926 39.2236 53.9453 70.2764 93.1689 93.1641c39.2207 22.8906 82.0566 34.334 128.502 34.334
c46.4502 0 89.2725 -11.4434 128.5 -34.334c39.2207 -22.8916 70.2734 -53.9443 93.167 -93.1641zM413.004 101.001c16.2227 27.7764 24.3291 58.1104 24.3291 90.998c0 32.8906 -8.10645 63.2246 -24.3291 91.001c-16.2207 27.7764 -38.2197 49.7793 -65.9971 66.001
c-27.7764 16.2227 -58.1104 24.3311 -91.0029 24.3311c-32.8906 0 -63.2236 -8.1084 -91.001 -24.3311c-27.7734 -16.2207 -49.7783 -38.2246 -65.9961 -66.001c-16.2217 -27.7764 -24.335 -58.1104 -24.335 -91.001c0 -32.8877 8.10938 -63.2217 24.335 -90.998
c16.2217 -27.7764 38.2197 -49.7822 65.9961 -66.0049c27.7803 -16.2217 58.1152 -24.3242 91.001 -24.3242c32.8945 0 63.2266 8.10254 91.0029 24.3242c27.7773 16.2217 49.7754 38.2285 65.9971 66.0049zM356.337 283.668l34.0059 -34.0059
c4.22559 -4.22168 6.33691 -9.22168 6.33691 -14.999c0 -5.77539 -2.11914 -10.7764 -6.33691 -14.9932l-140.671 -140.669c-4.22461 -4.21875 -9.22266 -6.33594 -15.0039 -6.33594c-5.77832 0 -10.7783 2.11816 -15 6.33594l-98 98.002
c-4.22266 4.21875 -6.33203 9.22168 -6.33203 14.9961c0 5.77832 2.10938 10.7812 6.33203 15l33.999 34.0029c4.22168 4.2207 9.2207 6.33203 15.002 6.33203c5.78223 0 10.7764 -2.11035 15 -6.33203l49.002 -49.0029l91.666 91.6689
c4.22754 4.2207 9.22266 6.33301 15.001 6.33301c5.77734 0 10.7842 -2.11133 14.999 -6.33301z" />
    <glyph glyph-name="017-button" unicode="&#xf110;" 
d="M437.02 373.018c48.3516 -48.3506 74.9805 -112.639 74.9785 -181.019c0 -68.3779 -26.6289 -132.666 -74.9805 -181.017c-48.3525 -48.3516 -112.639 -74.9805 -181.019 -74.9805s-132.666 26.627 -181.019 74.9805c-48.3516 48.3506 -74.9805 112.639 -74.9805 181.017
c0 68.3799 26.6289 132.668 74.9805 181.019c48.3525 48.3516 112.641 74.9824 181.021 74.9824s132.666 -26.6309 181.019 -74.9824zM400.183 247.259c7.89746 8.80664 7.15527 22.3955 -1.6582 30.29l-26.2432 23.5264
c-3.92578 3.52148 -9.00586 5.45996 -14.3047 5.45996c-6.10645 0 -11.9336 -2.59375 -15.9863 -7.11328l-99.4512 -110.938c-2.17578 -2.42676 -5.31641 -3.82129 -8.61523 -3.82129c-2.85449 0 -5.58691 1.03906 -7.69531 2.92871l-57.2979 51.3691
c-3.92578 3.51953 -9.00684 5.45801 -14.3047 5.45801c-6.10742 0 -11.9336 -2.59375 -15.9863 -7.11328l-23.5254 -26.2432c-7.89551 -8.80469 -7.15527 -22.3945 1.65332 -30.291l108.114 -96.9199c3.92676 -3.51953 9.00781 -5.45801 14.3066 -5.45996h0.000976562
c6.10742 0 11.9336 2.59375 15.9863 7.11328z" />
    <glyph glyph-name="016-check-circle" unicode="&#xf10f;" 
d="M504.421 389.402c10.0938 -10.0762 10.0938 -26.457 0 -36.5332l-51.6045 -51.6221c16.8975 -32.7959 26.5947 -69.8799 26.5947 -109.238c0 -132.182 -107.533 -239.715 -239.714 -239.715c-132.182 0 -239.697 107.533 -239.697 239.715
c0 132.181 107.516 239.714 239.697 239.714c73.9277 0 140.087 -33.6738 184.078 -86.4326l44.1123 44.1123c10.1113 10.0938 26.4395 10.0938 36.5332 0zM427.771 192.009c0 24.8896 -4.97754 48.625 -13.7617 70.3789l-150.078 -150.06
c-4.8916 -4.84082 -11.4365 -7.56152 -18.292 -7.56152s-13.4355 2.7207 -18.2754 7.56152l-103.278 103.295c-10.0938 10.0938 -10.0938 26.457 0 36.5342c10.0938 10.0928 26.4395 10.0928 36.5332 0l85.0205 -85.0205l141.396 141.379
c-34.4834 43.5088 -87.6387 71.5332 -147.322 71.5332c-103.691 0 -188.023 -84.3486 -188.023 -188.04c0 -103.709 84.332 -188.041 188.023 -188.041c103.709 0 188.058 84.332 188.058 188.041z" />
    <glyph glyph-name="059-truck-4" unicode="&#xf13a;" 
d="M104 0c0 8.83691 7.16309 16 16 16s16 -7.16309 16 -16s-7.16309 -16 -16 -16s-16 7.16309 -16 16zM479.928 128.216c0.0078125 -0.0722656 0.0722656 -98.9678 0.0722656 -112.216s-10.752 -24 -24 -24h-8.71973c-3.71289 -22.0762 -24.8945 -39.9922 -47.2803 -39.9922
s-43.5674 17.916 -47.2803 39.9922h-185.439c-3.71289 -22.0762 -24.8945 -39.9922 -47.2803 -39.9922s-43.5674 17.916 -47.2803 39.9922h-48.7197c-13.248 0 -24 10.752 -24 24v272c0 4.41602 3.58398 8 8 8h320c4.41602 0 8 -3.58398 8 -8v-72h72h0.015625
c2.11426 0 4.90625 -1.33691 6.23242 -2.98438l64 -80c0.908203 -1.16895 1.66016 -3.31934 1.67969 -4.7998zM120 -32c17.6641 0 32 14.3359 32 32s-14.3359 32 -32 32s-32 -14.3359 -32 -32s14.3359 -32 32 -32zM320 32v56h-304v-56h48c4.41602 0 8 -3.58398 8 -8
s-3.58398 -8 -8 -8h-48c0 -4.41602 3.58398 -8 8 -8h48.7197c3.71289 22.0762 24.8945 39.9922 47.2803 39.9922s43.5674 -17.916 47.2803 -39.9922h152.72v8h-144c-4.41602 0 -8 3.58398 -8 8s3.58398 8 8 8h144zM320 104v176h-304v-15.6484l24.1201 -0.351562
c4.38281 -0.0332031 7.94043 -3.61719 7.94043 -8c0 -4.41602 -3.58398 -8 -8.00098 -8h-0.0595703h-0.120117l-23.8799 0.34375v-15.9355l56.0557 -0.408203c4.40137 -0.015625 7.97266 -3.59961 7.97266 -8c0 -4.41602 -3.58398 -8 -8 -8h-0.0283203h-0.0556641
l-55.9443 0.423828v-16l88.04 -0.423828c4.40527 -0.0107422 7.98047 -3.59473 7.98047 -8c0 -4.41602 -3.58496 -8 -8.00098 -8h-0.0195312v0l-88 0.423828v-80.4238h304zM360 200v-64h95.3604l-51.2002 64h-44.1602zM336 200v-64h8v64h-8zM400 -32
c17.6641 0 32 14.3359 32 32s-14.3359 32 -32 32s-32 -14.3359 -32 -32s14.3359 -32 32 -32zM464 16v104h-128v-112h16.7197c3.71289 22.0762 24.8945 39.9922 47.2803 39.9922s43.5674 -17.916 47.2803 -39.9922h8.71973c4.41602 0 8 3.58398 8 8zM352 96
c-4.41602 0 -8 3.58398 -8 8s3.58398 8 8 8h16c4.41602 0 8 -3.58398 8 -8s-3.58398 -8 -8 -8h-16zM384 0c0 8.83691 7.16309 16 16 16s16 -7.16309 16 -16s-7.16309 -16 -16 -16s-16 7.16309 -16 16z" />
    <glyph glyph-name="035-trolley-3" unicode="&#xf122;" 
d="M245.508 95.4082l-61.5098 246.709l97.2119 24.2373l30.1982 -123.372l53.3984 13.0693l-30.2549 123.602l96.1533 23.9727l61.5127 -246.707zM237.451 6.96973c0.0253906 -0.104492 0.0595703 -0.204102 0.0839844 -0.30957
c7.45898 -29.916 -10.7529 -60.2217 -40.6699 -67.6816c-29.917 -7.45898 -60.2217 10.752 -67.6816 40.6689c-7.45898 29.917 10.75 60.2217 40.666 67.6816c0.214844 0.0527344 0.429688 0.0927734 0.644531 0.142578l-87.1221 344.245h-83.3721v54.9756h126.167
l97.7959 -386.424l275.044 66.9238l12.9951 -53.417z" />
    <glyph glyph-name="054-truck-2" unicode="&#xf135;" 
d="M499.099 147.277v0h12.9014v-49.7051h-12.9121v-7.37793h-39.2666c-4.45117 -26.4316 -27.4482 -46.6445 -55.1279 -46.6445c-27.6904 0 -50.6758 20.2129 -55.1162 46.6445h-125.72c-4.46191 -26.4316 -27.4365 -46.6445 -55.127 -46.6445
c-27.6914 0 -50.6768 20.2129 -55.1396 46.6445h-7.97461v7.37793h-11.7305v49.7051h11.7305v18.4238h-105.616l22.0908 29.458h83.5371v0.794922v21.2959h-74.3252l22.0908 29.458h52.2344v93.7422h245.308v-36.2285h102.049l46.1143 -151.466v-5.47852zM168.73 69.8818
c16.3359 0 29.6348 13.3096 29.6348 29.668c0 16.3467 -13.2988 29.6348 -29.6348 29.6348c-16.3477 0 -29.6465 -13.2988 -29.6465 -29.6348c0 -16.3584 13.3096 -29.668 29.6465 -29.668zM404.705 69.8818c16.3359 0 29.623 13.3096 29.6348 29.668
c0 16.3467 -13.2881 29.6348 -29.6348 29.6348c-16.3477 0 -29.6572 -13.2988 -29.6572 -29.6348c0 -16.3584 13.3203 -29.668 29.6572 -29.668zM377.268 210.8h76.6338l-20.4346 67.0898h-56.1992v-67.0898z" />
    <glyph glyph-name="047-delivery" unicode="&#xf12e;" 
d="M489.479 267.731c14.6641 -15.9209 22.5205 -38.7559 22.5205 -65.8857v-104.432c0 -6.91309 -5.65625 -12.5693 -12.5693 -12.5693h-28.0723c-4.29492 -18.8545 -21.0537 -32.8906 -41.165 -32.8906s-36.8711 14.1406 -41.166 32.8906h-20.1104h-130.515
c-4.29395 -18.8545 -21.0537 -32.8906 -41.165 -32.8906s-36.9756 14.0361 -41.165 32.8906h-0.837891h-37.3945c-6.91309 0 -12.5693 5.65625 -12.5693 12.5693v43.7842h-48.917c-6.91309 0 -12.5693 5.65625 -12.5693 12.5693s5.65625 12.5693 12.5693 12.5693h60.4385
h0.523438h0.628906c6.91309 0 12.5693 -5.65625 12.5693 -12.5693v-43.8887h24.8252c0.942383 0 1.78027 -0.104492 2.72363 -0.314453c6.17969 15.6074 21.3682 26.7109 39.1748 26.7109c17.7021 0 32.8906 -10.999 39.1748 -26.501
c0.524414 0.104492 1.04785 0.104492 1.57129 0.104492h118.363v168.537v28.4902h-225.833v-43.7832c0 -6.91309 -5.65625 -12.5703 -12.5693 -12.5703h-0.104492h-0.314453h-61.1719c-6.91309 0 -12.5693 5.65723 -12.5693 12.5703s5.65625 12.5693 12.5693 12.5693h48.917
v43.7842c0 6.91309 5.65625 12.5693 12.5693 12.5693h250.972c6.91309 0 12.5693 -5.65625 12.5693 -12.5693v-28.4912h52.6875c21.8926 0 41.585 -8.27539 55.4111 -23.2539zM197.237 76.9883c9.42676 0 17.0732 7.64648 17.0732 17.0742
c0 9.42676 -7.64648 17.0732 -17.0732 17.0732s-17.0732 -7.64648 -17.0732 -17.0732c0 -9.42773 7.64648 -17.0742 17.0732 -17.0742zM430.193 76.9883c9.32227 0 16.9688 7.64648 17.0732 17.0742c0 9.42676 -7.64648 17.0732 -17.0732 17.0732
c-9.42773 0 -17.0742 -7.64648 -17.0742 -17.0732c0 -9.42773 7.64648 -17.0742 17.0742 -17.0742zM486.861 109.879v91.8623c0 40.1182 -19.6924 64.1045 -52.6875 64.1045h-52.6875v-155.967h9.63672c6.28418 15.502 21.4727 26.3965 39.0703 26.3965
c17.5967 0 32.7852 -10.999 39.0703 -26.3965h17.5977zM215.882 184.877l10.7891 11.5225h-214.102c-6.91309 0 -12.5693 5.65625 -12.5693 12.5693s5.65625 12.5693 12.5693 12.5693h214.206l-9.32227 9.32324c-4.92285 4.92285 -4.92285 12.8838 0 17.8066
s12.8838 4.92285 17.8066 0l30.7959 -30.7959l0.104492 -0.104492c0.209961 -0.314453 0.524414 -0.523438 0.733398 -0.837891c0.104492 -0.209961 0.209961 -0.314453 0.314453 -0.523438c0.208984 -0.209961 0.314453 -0.314453 0.418945 -0.524414
c0.104492 -0.208984 0.208984 -0.418945 0.314453 -0.62793c0.104492 -0.209961 0.208984 -0.314453 0.313477 -0.524414c0.105469 -0.208984 0.209961 -0.418945 0.314453 -0.62793c0 -0.209961 0.104492 -0.314453 0.209961 -0.523438
c0.104492 -0.209961 0.104492 -0.418945 0.208984 -0.628906c0.105469 -0.104492 0.105469 -0.314453 0.209961 -0.523438c0 -0.209961 0.104492 -0.418945 0.104492 -0.628906c0 -0.208984 0.104492 -0.418945 0.104492 -0.62793
c0 -0.314453 0.105469 -0.524414 0.105469 -0.733398c0.104492 -0.209961 0.104492 -0.314453 0.104492 -0.524414c0.104492 -0.837891 0.104492 -1.67578 0 -2.51367c0 -0.208984 -0.104492 -0.314453 -0.104492 -0.523438
c0 -0.314453 -0.105469 -0.523438 -0.105469 -0.733398c0 -0.208984 -0.104492 -0.418945 -0.104492 -0.62793c0 -0.209961 0 -0.418945 -0.104492 -0.628906c-0.104492 -0.104492 -0.104492 -0.314453 -0.209961 -0.523438
c-0.104492 -0.209961 -0.104492 -0.418945 -0.208984 -0.628906c0 -0.208984 -0.105469 -0.314453 -0.209961 -0.523438c-0.104492 -0.209961 -0.208984 -0.418945 -0.314453 -0.628906c-0.104492 -0.208984 -0.208984 -0.313477 -0.313477 -0.523438
c-0.105469 -0.209961 -0.209961 -0.418945 -0.314453 -0.628906c-0.209961 -0.208984 -0.314453 -0.313477 -0.418945 -0.523438c-0.104492 -0.208984 -0.209961 -0.314453 -0.314453 -0.523438c-0.208984 -0.314453 -0.523438 -0.523438 -0.733398 -0.837891
l-0.104492 -0.105469l-32.3662 -32.3662c-2.51465 -2.40918 -5.65625 -3.66602 -8.9043 -3.66602c-3.24707 0 -6.49414 1.25684 -8.90332 3.66602c-4.92285 4.92285 -4.92285 12.8838 0 17.8066z" />
    <glyph glyph-name="019-symbol" unicode="&#xf112;" 
d="M256 448c141.026 0 255.686 -114.8 255.686 -256c0 -141.199 -114.659 -255.999 -255.686 -255.999c-141.027 0 -255.687 114.8 -255.687 255.999c0 141.2 114.659 256 255.687 256zM138.544 198.4l11.5859 11.5996c1.59766 1.60059 3.5957 2.40039 5.59277 2.40039
c1.99805 0 3.99512 -0.799805 5.59375 -2.40039l70.3135 -70.3994c1.59766 -1.60059 3.99512 -1.60059 5.59277 0l114.26 114.399c2.7959 2.80078 7.99023 2.80078 11.1855 0l11.5859 -11.5996c1.59863 -1.59961 2.39746 -3.60059 2.39746 -5.59961
c0 -2.00098 -0.798828 -4 -2.39746 -5.59961l-134.634 -134.001c-2.79688 -2.80078 -7.99023 -2.80078 -11.1865 0l-89.8896 90c-1.59766 1.59961 -2.39746 3.59961 -2.39746 5.59961s0.799805 4 2.39746 5.60059z" />
    <glyph glyph-name="032-cart" unicode="&#xf11f;" 
d="M371.5 82.7998h-349.6v19.7002h331.899l54.1006 334h82.1992v-20.7998h-64.5zM284.1 -52.5c-29.0996 0 -53.0996 23.9004 -53.0996 54.0996c0 30.2002 23.9004 54.1006 53.0996 54.1006c29.1006 0 53.1006 -23.9004 53.1006 -54.1006
c-0.100586 -30.1992 -24 -54.0996 -53.1006 -54.0996zM284.1 34.9004c-18.6992 0 -33.2998 -15.6006 -33.2998 -33.3008c0 -18.6992 14.6006 -33.2998 33.2998 -33.2998c18.7002 0 33.3008 15.6006 33.3008 33.2998c-1.10059 18.7002 -15.6006 33.3008 -33.3008 33.3008z
M91.5996 -52.5c-29.0996 0 -53.0996 23.9004 -53.0996 54.0996c0 30.2002 23.9004 54.1006 53.0996 54.1006c29.2002 0 53.1006 -23.9004 53.1006 -54.1006c1 -30.1992 -22.9004 -54.0996 -53.1006 -54.0996zM91.5996 34.9004
c-18.6992 0 -33.2998 -15.6006 -33.2998 -33.3008c0 -18.6992 14.6006 -33.2998 33.2998 -33.2998c18.7002 0 33.3008 15.6006 33.3008 33.2998c0 18.7002 -14.5 33.3008 -33.3008 33.3008zM308 130.6h-219.5v283h219.5v-283zM109.3 150.4h177.9v243.399h-177.9v-243.399z
" />
    <glyph glyph-name="051-delivery-truck-1" unicode="&#xf132;" 
d="M509.473 191.606c1.62793 -1.85938 2.52734 -4.24805 2.52832 -6.71973v-77.2607c0 -5.63281 -4.56738 -10.1992 -10.1992 -10.1992h-23.502c-4.48535 -16.3389 -19.46 -28.3818 -37.2041 -28.3818s-32.7178 12.043 -37.2031 28.3818v-0.000976562h-136.089
c-4.48535 -16.3389 -19.46 -28.3818 -37.2041 -28.3818c-17.7432 0 -32.7178 12.043 -37.2021 28.3818h-21.2881c-5.63281 0 -10.1992 4.56641 -10.1992 10.1992v10.3652h-59.0459c-5.63184 0 -10.1992 4.56543 -10.1992 10.1992c0 5.63281 4.56738 10.1982 10.1992 10.1982
h59.0459v132.21h-98.0918c-5.63281 0 -10.1992 4.56641 -10.1992 10.1992s4.56641 10.1992 10.1992 10.1992h98.0918v13.7617c0 5.63281 4.56641 10.1992 10.1992 10.1992h210.646c5.63184 0 10.1992 -4.56641 10.1992 -10.1992v-41.8721h49.4551
c2.93848 0 5.73438 -1.26855 7.67188 -3.47852zM230.6 89.4424c10.0264 0 18.1836 8.15625 18.1836 18.1826s-8.15723 18.1826 -18.1836 18.1826c-10.0254 0 -18.1816 -8.15625 -18.1816 -18.1826s8.15625 -18.1826 18.1816 -18.1826zM267.802 117.824h104.751v176.735
h-190.247v-176.735h11.0889c4.48633 16.3389 19.459 28.3818 37.2031 28.3818s32.7197 -12.043 37.2041 -28.3818zM441.094 89.4424c10.0273 0 18.1836 8.15625 18.1836 18.1826s-8.15723 18.1826 -18.1836 18.1826c-10.0254 0 -18.1816 -8.15625 -18.1816 -18.1826
s8.15625 -18.1826 18.1816 -18.1826zM491.602 117.824h-0.000976562v63.2266l-53.8174 61.4375h-44.8311v-124.664h10.9385c4.48633 16.3389 19.459 28.3818 37.2031 28.3818s32.7197 -12.043 37.2041 -28.3818h13.3037zM69.2607 138.389
c5.63281 0 10.1992 -4.56543 10.1992 -10.1982c0 -5.63379 -4.56738 -10.1992 -10.1992 -10.1992h-5.44141c-5.63281 0 -10.1992 4.56543 -10.1992 10.1992c0 5.63281 4.56641 10.1982 10.1992 10.1982h5.44141zM119.5 215.724c5.63184 0 10.1992 -4.56543 10.1992 -10.1982
c0 -5.63379 -4.56738 -10.1992 -10.1992 -10.1992h-109.301c-5.63184 0 -10.1992 4.56543 -10.1992 10.1992c0 5.63281 4.56738 10.1982 10.1992 10.1982h109.301z" />
    <glyph glyph-name="013-check-circular-button" unicode="&#xf10c;" 
d="M256 -64c-141.159 0 -256 114.841 -256 256s114.841 256 256 256s256 -114.843 256 -256s-114.843 -256 -256 -256zM256 425.359c-128.674 0 -233.359 -104.684 -233.359 -233.359s104.684 -233.359 233.357 -233.359c128.676 0 233.359 104.684 233.359 233.359
s-104.682 233.359 -233.357 233.359zM256 399.239c114.272 0 207.242 -92.9668 207.242 -207.239s-92.9678 -207.239 -207.242 -207.239c-114.272 0 -207.239 92.9668 -207.239 207.239s92.9648 207.239 207.239 207.239zM362.978 216.422
c6.28711 6.28516 9.74902 14.6465 9.75293 23.5371c0 8.89258 -3.46387 17.2539 -9.75098 23.5371c-6.28711 6.28906 -14.6455 9.75098 -23.5361 9.75098c-8.88867 0 -17.25 -3.46387 -23.5352 -9.75098l-80.5586 -80.5566l-39.251 39.249
c-6.28711 6.28906 -14.6465 9.75098 -23.5371 9.75098s-17.252 -3.46387 -23.5371 -9.75098c-6.28906 -6.28711 -9.75098 -14.6455 -9.75098 -23.5371c0 -8.89062 3.46387 -17.252 9.75098 -23.5342l64.2871 -64.2891c5.88477 -5.88672 13.709 -9.12891 22.0361 -9.12891
c8.32227 0 16.1465 3.24023 22.0332 9.12598z" />
    <glyph glyph-name="001-verified" unicode="&#xf100;" 
d="M437.019 373.02c48.3525 -48.3525 74.9814 -112.64 74.9814 -181.02s-26.6289 -132.667 -74.9814 -181.02c-48.3516 -48.3516 -112.639 -74.9805 -181.019 -74.9805s-132.668 26.6289 -181.02 74.9814c-48.3516 48.3516 -74.9805 112.639 -74.9805 181.019
s26.6289 132.668 74.9805 181.02s112.639 74.9805 181.02 74.9805c68.3799 0 132.667 -26.6289 181.019 -74.9805zM378.306 252.927c5.8584 5.8584 5.8584 15.3555 0 21.2129c-5.85742 5.8584 -15.3555 5.8584 -21.2129 0l-132.458 -132.46l-69.7275 69.7275
c-5.8584 5.85742 -15.3564 5.85742 -21.2129 0c-5.8584 -5.85938 -5.8584 -15.3564 0 -21.2129l80.334 -80.333c2.92871 -2.92969 6.76758 -4.39355 10.6064 -4.39355c3.83789 0 7.67676 1.46387 10.6064 4.39355z" />
    <glyph glyph-name="014-check-mark-1" unicode="&#xf10d;" 
d="M256 448c141.317 -0.161133 255.839 -114.683 256 -256c0 -141.384 -114.616 -256 -256 -256s-256 114.616 -256 256s114.616 256 256 256zM378.558 270.045c2.37988 2.29395 3.33105 5.69141 2.49609 8.8877c-0.834961 3.19727 -3.33496 5.69727 -6.53125 6.53125
c-3.19629 0.839844 -6.59375 -0.115234 -8.88867 -2.49023l-148.691 -148.701l-71.1123 71.1113c-3.58887 3.46484 -9.29004 3.41504 -12.8164 -0.111328c-3.52734 -3.52734 -3.57617 -9.22754 -0.112305 -12.8174l77.5762 -77.5752
c3.57129 -3.56738 9.35742 -3.56738 12.9287 0zM378.558 270.045z" />
    <glyph glyph-name="007-check-mark-in-a-circle" unicode="&#xf106;" 
d="M256 448c141.171 0 256 -114.854 256 -256s-114.829 -256 -256 -256c-141.133 0 -256 114.854 -256 256s114.867 256 256 256zM368.87 219.2c15.2578 15.2441 15.2578 39.9746 0 55.2188c-15.2188 15.2197 -39.9873 15.2197 -55.1934 0l-82.0225 -82.0098
l-33.2803 33.2803c-15.2705 15.2578 -39.9736 15.2578 -55.2188 0c-15.2451 -15.2188 -15.2451 -39.9619 0 -55.2061l60.9023 -60.9023c7.61621 -7.61621 17.626 -11.4307 27.5967 -11.4307c9.99707 0 19.9941 3.81445 27.6221 11.4307z" />
    <glyph glyph-name="002-tick" unicode="&#xf101;" 
d="M255.999 448c141.159 0 255.998 -114.839 255.998 -255.999c0 -141.159 -114.842 -256.001 -255.998 -256.001c-141.157 0 -255.999 114.842 -255.999 256.001c0 141.16 114.842 255.999 255.999 255.999zM402.998 235.241
c14.1143 14.1152 14.1143 37.0811 -0.00585938 51.2012c-6.83887 6.83887 -15.9287 10.6025 -25.5986 10.6025c-9.6709 0 -18.7607 -3.76367 -25.5996 -10.6025l-135.229 -135.229l-56.3662 56.3652c-6.83594 6.84082 -15.9297 10.6074 -25.5996 10.6074
c-9.67285 0 -18.7627 -3.7666 -25.5986 -10.6055c-6.83887 -6.83789 -10.6055 -15.9287 -10.6055 -25.6016c0 -9.66992 3.7666 -18.7607 10.6055 -25.5986l81.9688 -81.9688c6.83789 -6.83887 15.9287 -10.6025 25.5986 -10.6025s18.7607 3.76367 25.5996 10.6025z" />
    <glyph glyph-name="015-accept-symbol" unicode="&#xf10e;" 
d="M256 448c141.397 0 255.943 -114.546 256 -256c-0.0566406 -141.397 -114.603 -255.943 -256 -256c-141.454 0.0566406 -256 114.603 -256 256c0 141.454 114.546 256 256 256zM256 -3.7832c108.061 0.255859 195.527 87.7227 195.783 195.783
c-0.255859 108.117 -87.7227 195.584 -195.783 195.812c-108.117 -0.227539 -195.584 -87.6943 -195.84 -195.812c0.255859 -108.061 87.7227 -195.527 195.84 -195.783zM341.333 305.777l56.8896 -56.8887l-170.667 -170.666l-113.778 113.777l56.8896 56.8887
l56.8887 -56.8887z" />
    <glyph glyph-name="044-fast-delivery-2" unicode="&#xf12b;" 
d="M365 444.984c44.3906 -10.3008 61.3711 -36.2578 82.6602 -71.9844h-82.6602v71.9844zM105.578 370h-75.5781c-8.28516 0 -15 6.71484 -15 15s6.71484 15 15 15h18v33c0 8.28516 6.71484 15 15 15h272v-90c0 -8.28516 6.71484 -15 15 -15h115.535
c0.0429688 -0.0664062 46.4648 -2.98828 46.4648 -47v-90c0 -8.28516 -6.71484 -15 -15 -15h-26.1523c-5.375 -26.4766 -28.7695 -46 -56.3477 -46s-50.9727 19.5234 -56.3477 46h-152.305c-5.375 -26.4766 -28.7695 -46 -56.3477 -46s-50.9727 19.5234 -56.3477 46
h-30.1523c-8.28516 0 -15 6.71484 -15 15v45h-33c-8.28516 0 -15 6.71484 -15 15s6.71484 15 15 15h135.059c8.28516 0 15 6.71484 15 15c0 8.28906 -6.69531 15 -15.0586 15h-135c-8.28516 0 -15 6.71484 -15 15c0 8.28125 6.71484 15 15 15h90.6211
c8.26562 0.0234375 14.957 6.73047 14.957 15c0 9.80469 -6.30859 14 -15 14zM433.945 221.945c-17.2734 17.2734 -46.9453 4.98438 -46.9453 -19.4453c0 -24.4336 29.6719 -36.7227 46.9453 -19.4492c10.7383 10.7383 10.7383 28.1562 0 38.8945zM168.945 221.945
c-17.2734 17.2734 -46.9453 4.98438 -46.9453 -19.4453c0 -24.4336 29.6719 -36.7227 46.9453 -19.4492c10.7383 10.7383 10.7383 28.1562 0 38.8945zM168.945 221.945z" />
    <glyph glyph-name="021-tick-1" unicode="&#xf114;" 
d="M437.101 373.101c99.8643 -99.8623 99.8535 -262.342 0 -362.208c-99.8535 -99.8535 -262.339 -99.8643 -362.208 0c-99.8438 99.8457 -99.8535 262.346 0 362.208c99.8594 99.8691 262.346 99.8594 362.208 0zM253.238 125.865l120.117 120.111
c4.08398 4.08887 4.08398 10.6943 0 14.7832c-4.0918 4.08203 -10.6982 4.09863 -14.8027 0l-112.728 -112.718l-77.6074 77.623c-4.08887 4.08203 -10.6934 4.08203 -14.7822 0c-2.03516 -2.04297 -3.0625 -4.71777 -3.0625 -7.3916
c0.0185547 -2.68164 1.0459 -5.35547 3.0625 -7.39258l85.0195 -85.0156c4.08887 -4.08301 10.6992 -4.08301 14.7832 0z" />
    <glyph glyph-name="023-delivery-package-opened" unicode="&#xf116;" 
d="M255.177 260.548v-210.984l167.971 31.877v102.799c0 4.30273 3.74805 7.64551 8.02344 7.15527l20.665 -3.19727c3.63574 -0.417969 6.38086 -3.49609 6.38086 -7.15625v-119.423c0 -3.39453 -2.37012 -6.32812 -5.68945 -7.04199l-183.874 -39.5361
c-8.88574 -1.90918 -18.0732 -1.93066 -26.9678 -0.0595703l-181.9 38.2617c-3.26465 0.685547 -5.62988 3.52539 -5.71777 6.86133l-3.1416 121.285c-0.0986328 3.80371 2.7793 7.02734 6.56836 7.36035l154.514 13.5771c2.67969 0.235352 5.00488 1.94531 6.0293 4.43164
l23.2783 56.5312c3.00293 7.29492 13.8613 5.14746 13.8613 -2.74121zM49.1777 329.626c0.987305 2.10938 2.93359 3.61035 5.22266 4.03125l200.083 36.751l-58.5918 -131.999c-1.04883 -2.36426 -3.28516 -3.98438 -5.8584 -4.24414l-182.096 -18.3994
c-5.5625 -0.5625 -9.61621 5.15234 -7.24707 10.2168zM254.484 370.408l204.178 -36.752c2.32617 -0.419922 4.29688 -1.9502 5.27734 -4.09961l47.4004 -103.916c2.28027 -5 -1.65234 -10.6084 -7.12988 -10.168l-181.751 14.6162
c-2.60742 0.209961 -4.89453 1.81445 -5.97754 4.19336z" />
    <glyph glyph-name="062-shipping" unicode="&#xf13d;" 
d="M485.937 244.388c14.3936 0 26.0635 -11.6699 26.0615 -26.0654v-113.521c0 -14.3945 -11.6689 -26.0635 -26.0635 -26.0635h-6.36816c-0.65625 -45.4268 -37.792 -82.1855 -83.3711 -82.1855c-45.5781 0 -82.7148 36.7607 -83.3721 82.1855h-111.878
c-0.65625 -45.4268 -37.792 -82.1855 -83.3711 -82.1855c-45.5781 0 -82.7148 36.7607 -83.3721 82.1855h-8.13867c-14.3936 0 -26.0635 11.6689 -26.0635 26.0635v256.58c0 14.3936 11.6699 26.0635 26.0635 26.0635h340.148c13.8828 0 26.7236 -7.37598 33.7158 -19.3701
l72.1084 -123.687h13.9004zM405.854 243.807c6.2666 0 10.2012 6.76855 7.09766 12.2139l-42.8203 75.1738c-1.45312 2.54883 -4.16309 4.125 -7.09766 4.125h-55.9121c-4.51074 0 -8.16797 -3.65723 -8.16797 -8.16797v-75.1758
c0 -4.51074 3.65625 -8.16895 8.16797 -8.16895h98.7324zM117.574 48.6807c17.2451 0 31.2754 14.0312 31.2754 31.2764s-14.0303 31.2764 -31.2754 31.2764c-17.2461 0 -31.2764 -14.0312 -31.2764 -31.2764s14.0303 -31.2764 31.2764 -31.2764zM396.195 48.6807
c17.2451 0 31.2754 14.0312 31.2754 31.2764s-14.0303 31.2764 -31.2754 31.2764s-31.2764 -14.0312 -31.2764 -31.2764s14.0312 -31.2764 31.2764 -31.2764z" />
    <glyph glyph-name="049-shipped" unicode="&#xf130;" 
d="M476.158 216.637c20.2646 -3.08496 35.8418 -20.626 35.8408 -41.7373v-85.5117c0 -4.42773 -3.58984 -8.0166 -8.0166 -8.0166h-26.2031c0.00195312 -0.177734 0.0136719 -0.354492 0.0136719 -0.53418c0 -27.9961 -22.7773 -50.7715 -50.7715 -50.7715
c-27.9951 0 -50.7725 22.7754 -50.7725 50.7715c0 0.178711 0.0117188 0.356445 0.0136719 0.53418h-180.67c0.00195312 -0.177734 0.0146484 -0.354492 0.0146484 -0.53418c0 -27.9961 -22.7773 -50.7715 -50.7725 -50.7715s-50.7715 22.7754 -50.7715 50.7715
c0 0.178711 0.0117188 0.356445 0.0136719 0.53418h-43.3037c-9.13672 0 -16.5684 7.43164 -16.5684 16.5684v17.6367h-26.1885c-4.42773 0 -8.0166 3.58887 -8.0166 8.0166c0 4.42871 3.58984 8.01758 8.0166 8.01758h76.96c4.42871 0 8.01758 -3.58887 8.01758 -8.01758
c0 -4.42773 -3.58984 -8.0166 -8.01758 -8.0166h-34.7383v-17.6367c0 -0.295898 0.238281 -0.53418 0.53418 -0.53418h46.0801c6.88574 19.8828 25.7871 34.2051 47.9824 34.2051s41.0957 -14.3223 47.9824 -34.2051h166.327v60.3906
c0 4.42773 3.59082 8.01758 8.01758 8.01758c4.42773 0 8.0166 -3.59082 8.0166 -8.01758v-60.3926h3.86035c6.88477 19.8828 25.7871 34.2051 47.9824 34.2051c22.1943 0 41.0957 -14.3223 47.9814 -34.2051h20.9619v35.2725h-9.08594
c-13.8506 0 -25.1191 11.2686 -25.1191 25.1191v17.1025c0 4.42773 3.58984 8.0166 8.01758 8.0166h24.9277c-3.39453 10.5254 -13.2754 18.1631 -24.9121 18.1709c-0.00683594 0 -0.0136719 -0.000976562 -0.0214844 -0.000976562
s-0.0136719 0.00195312 -0.0214844 0.00195312h-94.5693v-9.08789c0 -4.42773 -3.58984 -8.0166 -8.0166 -8.0166c-4.42773 0 -8.0166 3.58984 -8.0166 8.0166v145.372c0 0.294922 -0.239258 0.53418 -0.53418 0.53418h-307.841
c-0.295898 0 -0.53418 -0.239258 -0.53418 -0.53418v-145.37c0 -4.42773 -3.58984 -8.0166 -8.01758 -8.0166s-8.0166 3.58984 -8.0166 8.0166v145.37c0 9.13574 7.43164 16.5684 16.5684 16.5684h307.842c9.13574 0 16.5674 -7.43262 16.5674 -16.5684v-17.6377h60.3926
c18.5645 0 33.6699 -15.1045 33.6699 -33.6709v-8.55078c0 -3.85254 -2.71973 -7.06836 -6.34473 -7.83887zM375.182 303.699v-18.1709h78.0293v0.533203c0 9.72559 -7.91211 17.6377 -17.6367 17.6377h-60.3926zM375.182 217.119h84.3291l-13.0938 52.376h-71.2354v-52.376
zM144.835 46.0957c19.1553 0 34.7393 15.583 34.7393 34.7393s-15.584 34.7393 -34.7393 34.7393s-34.7393 -15.583 -34.7393 -34.7393s15.584 -34.7393 34.7393 -34.7393zM427.023 46.0957c19.1543 0 34.7383 15.583 34.7383 34.7393s-15.584 34.7393 -34.7383 34.7393
c-19.1553 0 -34.7393 -15.583 -34.7393 -34.7393s15.584 -34.7393 34.7393 -34.7393zM495.967 148.71h-0.000976562v18.1719h-18.1709v-9.08594c0 -5.00977 4.07617 -9.08594 9.08594 -9.08594h9.08594zM144.835 97.4033c9.13574 0 16.5684 -7.43262 16.5684 -16.5684
s-7.43262 -16.5684 -16.5684 -16.5684s-16.5684 7.43262 -16.5684 16.5684s7.43262 16.5684 16.5684 16.5684zM427.023 97.4033c9.13574 0 16.5674 -7.43262 16.5674 -16.5684s-7.43164 -16.5684 -16.5674 -16.5684c-9.13672 0 -16.5684 7.43262 -16.5684 16.5684
s7.43164 16.5684 16.5684 16.5684zM332.96 131.607c4.42773 0 8.0166 -3.58984 8.0166 -8.01758s-3.58984 -8.0166 -8.0166 -8.0166h-119.716c-4.42773 0 -8.01758 3.58887 -8.01758 8.0166s3.59082 8.01758 8.01758 8.01758h119.716zM127.733 165.812
c4.42676 0 8.0166 -3.58887 8.0166 -8.0166s-3.58984 -8.0166 -8.0166 -8.0166h-102.614c-4.42773 0 -8.01758 3.58887 -8.01758 8.0166s3.59082 8.0166 8.01758 8.0166h102.614zM278.771 274.63c3.12988 -3.13086 3.12988 -8.20605 -0.00195312 -11.3379l-76.96 -76.96
c-1.56348 -1.56641 -3.61621 -2.34766 -5.66797 -2.34766c-2.05078 0 -4.10254 0.78125 -5.66797 2.34766l-42.7559 42.7559c-3.13086 3.13086 -3.13086 8.20605 0 11.3369c3.12988 3.13086 8.20605 3.13086 11.3369 0l37.0869 -37.0869l71.292 71.291
c3.13086 3.13086 8.20703 3.13086 11.3379 0.000976562z" />
    <glyph glyph-name="030-box-2" unicode="&#xf11d;" 
d="M510.015 226.065c2.17383 -3.79199 2.58398 -8.34277 1.125 -12.4619c-1.45703 -4.11816 -4.63867 -7.39746 -8.71191 -8.97852l-40.0381 -15.542v-115.977c0 -6.32422 -3.9668 -11.9697 -9.91699 -14.1123l-189.757 -68.3457
c-1.64258 -0.591797 -3.36328 -0.887695 -5.08301 -0.887695c-0.0380859 0 -0.0761719 0.00488281 -0.115234 0.00488281c-0.0322266 0 -0.0644531 -0.00488281 -0.0976562 -0.00488281c-2.25879 0 -4.3916 0.513672 -6.3125 1.40723l-188.314 67.8262
c-5.9502 2.14258 -9.91699 7.78809 -9.91699 14.1123v114.709l-43.3037 16.8096c-4.07324 1.58105 -7.25391 4.86035 -8.71191 8.97852c-1.45801 4.11914 -1.04688 8.66992 1.125 12.4619l52.876 92.2852c1.82422 3.18359 4.66992 5.47363 7.91895 6.64746
c0.00488281 0.00195312 0.0078125 0.00585938 0.0126953 0.0078125l189.757 68.3457c3.31348 1.19238 6.93945 1.18359 10.2451 -0.0283203l186.492 -68.3467c0.0126953 -0.00390625 0.0214844 -0.0107422 0.0351562 -0.015625
c3.20605 -1.18457 6.01172 -3.45898 7.81738 -6.61133zM257.589 363.28l-145.566 -52.4307l145.357 -52.6719l143.227 52.6895zM74.6221 292.494l-37.9385 -66.2129l158.416 -61.4941l40.333 69.4346zM82.876 176.169v-92.5225l159.543 -57.4639v160.341l-27.8213 -47.8955
c-2.75293 -4.73926 -7.76172 -7.46777 -12.9746 -7.46777c-1.81348 0 -3.64844 0.330078 -5.42383 1.01855zM432.39 83.6465v93.79l-116.589 -45.2578c-7.00098 -2.71777 -14.9365 0.162109 -18.5635 6.74121l-24.8184 45.0146v-157.905zM317.175 164.893l158.142 61.3887
l-37.9062 66.1592l-158.424 -58.2803z" />
    <glyph glyph-name="010-verification-circular-symbol" unicode="&#xf109;" 
d="M255.991 448c141.396 0 256.009 -114.604 256 -256c0 -141.388 -114.611 -256 -256 -256c-141.362 0 -255.991 114.612 -255.991 256c0 141.396 114.629 256 255.991 256zM255.991 13.4355c98.6348 0 178.598 79.9473 178.59 178.564
c0 98.626 -79.9717 178.572 -178.59 178.572c-98.6172 0 -178.556 -79.9463 -178.556 -178.572c0 -98.6172 79.9307 -178.564 178.556 -178.564zM323.884 270.999l45.2402 -45.2148l-82.9395 -82.9473l0.00878906 -0.00878906l-45.2148 -45.2061l-0.0166016 -0.0166016
l-45.2314 45.2393v0l-50.9004 50.8926l45.2305 45.248l50.8926 -50.917z" />
    <glyph glyph-name="026-trolley" unicode="&#xf119;" 
d="M116 36c16.543 0 30 -13.457 30 -30s-13.457 -30 -30 -30s-30 13.457 -30 30s13.457 30 30 30zM116 -4c5.51562 0 10 4.48438 10 10s-4.48438 10 -10 10s-10 -4.48438 -10 -10s4.48438 -10 10 -10zM116 -4zM482 36c16.543 0 30 -13.457 30 -30s-13.457 -30 -30 -30
h-302.746c-11.4844 -24.1875 -36.0625 -40 -63.2539 -40c-38.5977 0 -70 31.4023 -70 70c0 27.1914 15.8125 51.7695 40 63.2539v318.746h-56c-16.543 0 -30 13.457 -30 30s13.457 30 30 30h86c16.543 0 30 -13.457 30 -30v-348.746
c14.6406 -6.92188 26.3359 -18.6172 33.2539 -33.2539h6.74609v362c0 5.52344 4.47656 10 10 10h200c5.52344 0 10 -4.47656 10 -10v-136h50c5.52344 0 10 -4.47656 10 -10v-216h16zM446 36v206h-70v-106c0 -3.78906 -2.14062 -7.25 -5.52734 -8.94531
c-3.38281 -1.69141 -7.4375 -1.33203 -10.4727 0.945312l-34 25.5l-34 -25.5c-3.03125 -2.27344 -7.08594 -2.64062 -10.4727 -0.945312s-5.52734 5.15625 -5.52734 8.94531v106h-70v-206h240zM296 242v-86l24 18c1.77734 1.33203 3.89062 2 6 2s4.22266 -0.667969 6 -2
l24 -18v86h-60zM276 388v-57.3125l14.4531 9.63281c1.67969 1.12109 3.61328 1.67969 5.54688 1.67969s3.86719 -0.558594 5.54688 -1.67969l14.4531 -9.63281v57.3125h-40zM256 388h-50v-126h180v126h-50v-76c0 -3.6875 -2.03125 -7.07812 -5.28125 -8.81641
c-3.24609 -1.73828 -7.19531 -1.55078 -10.2656 0.496094l-24.4531 16.3008l-24.4531 -16.3008c-3.06641 -2.04297 -7.01172 -2.23828 -10.2656 -0.496094c-3.25 1.74219 -5.28125 5.12891 -5.28125 8.81641v76zM30 408h66c5.52344 0 10 -4.47656 10 -10v-322.723
c3.29688 0.472656 6.63281 0.722656 10 0.722656s6.70312 -0.25 10 -0.722656v342.723c0 5.51562 -4.48438 10 -10 10h-86c-5.51562 0 -10 -4.48438 -10 -10s4.48438 -10 10 -10zM116 -44c27.2734 0 50 22.0625 50 50c0 27.25 -22.0703 50 -50 50
c-27.9375 0 -50 -22.7266 -50 -50c0 -27.5703 22.4297 -50 50 -50zM482 -4c5.51562 0 10 4.48438 10 10s-4.48438 10 -10 10h-296.723c0.46875 -3.29688 0.722656 -6.63281 0.722656 -10s-0.25 -6.70312 -0.722656 -10h296.723zM482 -4zM416 56
c-5.52344 0 -10 4.47656 -10 10v20c0 5.52344 4.47656 10 10 10s10 -4.47656 10 -10v-20c0 -5.52344 -4.47656 -10 -10 -10zM416 56zM416 136c5.51953 0 10 -4.48047 10 -10s-4.48047 -10 -10 -10s-10 4.48047 -10 10s4.48047 10 10 10zM416 136zM376 96
c5.52344 0 10 -4.47656 10 -10v-20c0 -5.52344 -4.47656 -10 -10 -10s-10 4.47656 -10 10v20c0 5.52344 4.47656 10 10 10zM376 96z" />
    <glyph glyph-name="060-van" unicode="&#xf13b;" 
d="M511.577 183.878c0.280273 -0.820312 0.422852 -1.68262 0.420898 -2.55176v-103.437c0 -4.36328 -3.53613 -7.89941 -7.89844 -7.89941h-43.0566c-3.03613 -38.6172 -35.4121 -69.1172 -74.7998 -69.1172c-39.3809 0 -71.75 30.4971 -74.7881 69.1113
l-127.103 -0.0234375c-3.0498 -38.6016 -35.4141 -69.0879 -74.7852 -69.0879c-39.3643 0 -71.7256 30.4717 -74.7881 69.0625l-26.8789 -0.00585938c-2.09473 0 -4.10449 0.833008 -5.58594 2.31445c-1.48145 1.47949 -2.31445 3.49023 -2.31445 5.58496v297.4
c0 4.3623 3.53613 7.89844 7.89941 7.89844h335.89c4.3623 0 7.89844 -3.53613 7.89844 -7.89844v-64.374h110.914c3.37891 0 6.38379 -2.15039 7.47559 -5.34863zM109.568 42.4785c18.4375 0 33.4404 15.0029 33.4395 33.4424c0 18.4395 -15.001 33.4424 -33.4395 33.4424
c-18.4414 0 -33.4443 -15.0029 -33.4443 -33.4424s15.0029 -33.4424 33.4443 -33.4424zM386.245 42.4785c18.4453 0 33.4531 15.0029 33.4531 33.4424s-15.0078 33.4424 -33.4531 33.4424c-18.4395 0 -33.4404 -15.0029 -33.4404 -33.4424s15.001 -33.4424 33.4404 -33.4424
zM417.097 168.085l43.8711 0.0175781l-30.5059 92.6719h-81.9531v-54.7754l50.3555 0.0449219h0.00585938c3.40918 0 6.43457 -2.18652 7.50098 -5.42676z" />
    <glyph glyph-name="036-box-6" unicode="&#xf123;" 
d="M227.112 121.435l15.3105 26.3574v-155.683l-179.624 64.6963c-5.94922 2.14258 -9.91699 7.78711 -9.91699 14.1113v79.0801l121.339 -47.1025c4.99902 -1.93945 10.248 -2.92383 15.5996 -2.92383c15.3115 0 29.6016 8.22461 37.292 21.4639zM322.187 99.9707
c5.35156 0 10.5996 0.984375 15.5986 2.9248l124.605 48.3691v-80.3477c0 -6.32422 -3.9668 -11.9688 -9.91699 -14.1113l-180.052 -64.8506v150.952l12.4736 -21.4727c7.69043 -13.2393 21.9795 -21.4639 37.291 -21.4639zM419.532 333.689l-163.527 -59.2568
l-163.27 59.1631l159.818 57.5625c3.3125 1.19141 6.93848 1.18262 10.2451 -0.0292969zM460.353 305.197l49.7764 -86.8799c2.0459 -3.56934 2.43262 -7.85352 1.06055 -11.7314s-4.36719 -6.96484 -8.20215 -8.45312l-175.697 -68.2021
c-1.67188 -0.649414 -3.39941 -0.958984 -5.10547 -0.958984c-4.9082 0 -9.62305 2.56934 -12.2148 7.03027l-53.9668 96.5557l-53.9678 -96.5557c-2.59082 -4.46191 -7.30664 -7.03027 -12.2148 -7.03027c-1.70605 0 -3.43359 0.30957 -5.10547 0.958984l-175.697 68.2021
c-5.12207 1.9873 -8.74512 6.82617 -9.00586 12.5928c-0.124023 2.75684 0.654297 5.47949 2.02637 7.875l49.6162 86.5967c3.41211 5.95312 10.6123 8.59473 17.0635 6.25586l187.286 -67.8525l187.285 67.8525c6.45215 2.33887 13.6514 -0.302734 17.0635 -6.25586z" />
    <glyph glyph-name="031-box-3" unicode="&#xf11e;" 
d="M271.922 46.9473c14.9912 0 27.1924 -12.1992 27.1924 -27.1924c0 -14.9912 -12.2012 -27.1914 -27.1924 -27.1914c-14.9922 0 -27.1924 12.2002 -27.1924 27.1914c0 14.9932 12.2002 27.1924 27.1924 27.1924zM271.922 10.6914
c5.00391 0 9.06445 4.06055 9.06445 9.06348c0 5.00391 -4.06055 9.06445 -9.06445 9.06445s-9.06445 -4.06055 -9.06445 -9.06445c0 -5.00293 4.06055 -9.06348 9.06445 -9.06348zM271.922 83.2041c34.9785 0 63.4482 -28.4707 63.4482 -63.4492
c0 -34.9775 -28.4697 -63.4482 -63.4482 -63.4482c-34.9873 0 -63.4482 28.4707 -63.4482 63.4482c0 34.9785 28.4609 63.4492 63.4482 63.4492zM271.922 -25.5654c24.9893 0 45.3203 20.3311 45.3203 45.3203c0 24.9902 -20.3311 45.3203 -45.3203 45.3203
s-45.3203 -20.3301 -45.3203 -45.3203c0 -24.9893 20.3311 -45.3203 45.3203 -45.3203zM208.474 19.791v154.09h18.1279v-154.09h-18.1279zM108.859 394.789l171.038 -316.325l-15.9531 -8.62891l-171.038 316.335c-4.74023 8.79297 -13.876 14.2578 -23.8564 14.2852
h-69.0498v18.1279h69.0693c16.6494 -0.0371094 31.8955 -9.15527 39.79 -23.7939zM330.711 2.76953l-8.72852 15.8809l181.326 99.6631l8.72852 -15.8809zM397.64 278.026c2.45703 -4.35938 0.916016 -9.88867 -3.45215 -12.3447l-145.034 -81.585
c-1.36914 -0.779297 -2.90039 -1.17871 -4.44141 -1.17871c-0.816406 0 -1.64062 0.117188 -2.44824 0.334961c-2.31055 0.644531 -4.27832 2.18555 -5.45605 4.28809l-81.5947 145.043c-2.45605 4.35938 -0.90625 9.8877 3.4541 12.3447l145.033 81.5947
c2.10352 1.1875 4.56836 1.48633 6.88867 0.824219c2.32031 -0.643555 4.27832 -2.18457 5.45605 -4.28711zM248.155 204.327l129.235 72.7021l-72.6934 129.254l-129.244 -72.7109zM287.33 355.226c1.20605 -2.07617 1.52344 -4.55078 0.904297 -6.87988
c-0.616211 -2.3291 -2.13867 -4.30469 -4.22363 -5.50195l-39.2559 -22.6592c-1.42285 -0.825195 -2.98145 -1.21484 -4.52246 -1.21484c-3.13574 0 -6.18164 1.62207 -7.8584 4.53223l-22.6602 39.2471c-2.50098 4.3418 -1.01465 9.87988 3.31836 12.3818l39.2471 22.6592
c4.32324 2.51074 9.87988 1.01465 12.3809 -3.31738zM243.551 340.414l23.5498 13.5957l-13.5967 23.5488l-23.5488 -13.5957zM479.189 132.992c1.1875 -2.09375 1.47754 -4.57715 0.834961 -6.8877c-0.643555 -2.32031 -2.18457 -4.27832 -4.28809 -5.45703
l-145.043 -81.5938c-1.35059 -0.779297 -2.88184 -1.16895 -4.42285 -1.16895c-0.825195 0 -1.64062 0.116211 -2.44824 0.334961c-2.31934 0.643555 -4.27832 2.18457 -5.45605 4.28711l-81.5947 145.043c-2.45605 4.35938 -0.90625 9.8877 3.4541 12.3447l145.033 81.5859
c4.36914 2.46484 9.88867 0.905273 12.3359 -3.4541zM329.723 59.293l129.245 72.7031l-72.7031 129.244l-129.244 -72.7021zM368.853 210.137c2.50195 -4.3418 1.01562 -9.87988 -3.31934 -12.3818l-39.2471 -22.6592
c-1.42285 -0.825195 -2.98145 -1.21484 -4.52246 -1.21484c-3.13574 0 -6.18164 1.62207 -7.8584 4.53223l-22.6592 39.2471c-2.50195 4.34082 -1.01562 9.87988 3.31738 12.3818l39.2471 22.6592c4.31445 2.51074 9.87109 1.02441 12.3818 -3.31738zM325.073 195.326
l23.5488 13.5957l-13.5957 23.5488l-23.5488 -13.5957z" />
    <glyph glyph-name="045-fast-delivery-3" unicode="&#xf12c;" 
d="M204.242 219.969h156.446c17.7148 52.1523 91.6289 51.6514 109.171 0h13.0723v75.1738c0 9.36621 -7.6748 17.041 -17.0371 17.041h-115.269c-8.30469 0 -15.0371 6.73242 -15.0371 15.0332v90.2119h-257.597v-18.0391h27.6436c19.793 0 19.793 -30.0703 0 -30.0703
h-27.6436v-29.0684h72.168c19.7969 0 19.7969 -30.0713 0 -30.0713h-72.168v-90.207h17.084c17.7109 52.1523 91.6279 51.6436 109.166 -0.00390625zM47.9219 369.319h-18.0391c-19.7969 0 -19.7969 30.0703 0 30.0703h18.0391v33.0762
c0 8.30176 6.73145 15.0332 15.0371 15.0332c23.0098 0 275.891 -0.0976562 275.891 0c41.1582 0 77.0098 -20.376 98.1055 -55.7773l29.4795 -49.4707c25.7256 -0.290039 46.5674 -21.335 46.5674 -47.1045v-90.2109c0 -8.30176 -6.73145 -15.0332 -15.0332 -15.0332
h-26.2109c-5.38965 -26.5361 -28.8379 -46.1055 -56.4814 -46.1055c-27.6445 0 -51.0928 19.5693 -56.4814 46.1055h-152.654c-5.38867 -26.5361 -28.8369 -46.1055 -56.4814 -46.1055c-27.6436 0 -51.0918 19.5693 -56.4814 46.1055h-30.2188
c-8.30566 0 -15.0371 6.73145 -15.0371 15.0332v45.1074h-33.0762c-19.793 0 -19.793 30.0664 0 30.0664h33.0762v30.0703h-33.0762c-19.793 0 -19.793 30.0713 0 30.0713h33.0762v29.0684zM434.768 220.92c-17.3154 17.3145 -47.0576 4.99805 -47.0576 -19.4912
s29.7422 -36.8066 47.0576 -19.4912c10.7627 10.7627 10.7627 28.2188 0 38.9824zM431.538 342.255l-20.3096 34.082c-10.7002 17.9609 -26.3867 30.8682 -45.5693 37.0176v-71.0996h65.8789zM169.15 220.92c-17.3145 17.3145 -47.0527 4.99805 -47.0566 -19.4912
c0 -24.4893 29.7422 -36.8066 47.0566 -19.4912c10.7637 10.7627 10.7637 28.2188 0 38.9824zM169.15 220.92z" />
    <glyph glyph-name="037-trolley-4" unicode="&#xf124;" 
d="M503.407 97.6895l-171.226 -80.4775c1.3623 -5.24023 2.0957 -10.6885 2.0957 -16.3477c0 -35.8379 -29.0264 -64.8643 -64.8643 -64.8643s-64.8643 29.0264 -64.8643 64.8643c0 22.8447 11.7363 42.8594 29.5498 54.3857l-108.037 228.65l-21.5869 -57.0059
l64.2363 -123.127l-18.5479 -9.85059l-69.6846 131.825l33.0078 84.5645l-54.8047 115.897l-49.041 -3.24902l-1.04785 21.7969l64.2354 3.24805l181.495 -384.157c4.82031 1.15234 9.85059 1.78125 15.0898 1.78125c22.3203 0 42.125 -11.3174 53.7568 -28.6074
l171.016 80.373zM269.413 -42.2041c23.6826 0 42.9639 19.2812 42.9639 42.9639s-19.1768 42.9639 -42.9639 42.9639c-23.6826 0 -42.9639 -19.1768 -42.9639 -42.9639c0 -23.6826 19.1768 -42.9639 42.9639 -42.9639zM479.201 176.701l-193.86 -93.6816l-92.6338 193.859
l193.86 93.6816zM376.717 341.22l-155.821 -74.0859l74.0859 -154.669l155.821 74.0859z" />
    <glyph glyph-name="038-cart-1" unicode="&#xf125;" 
d="M185.831 -17.2998c0 25.791 20.9082 46.6992 46.6992 46.6992c25.792 0 46.7002 -20.9082 46.7002 -46.6992c0 -25.792 -20.9082 -46.7002 -46.7002 -46.7002c-25.791 0 -46.6992 20.9082 -46.6992 46.7002zM509.177 77.7705
c1.56738 -5.32812 -1.25293 -10.9697 -6.47656 -13.0586l-204.77 -70.3115c-0.416992 3.23926 -1.25293 11.8057 -6.47656 19.1191l204.769 70.3105c5.22363 2.08984 11.2832 -0.731445 12.9541 -6.05957zM220.307 48.1006
c-4.70117 0.417969 -17.3418 -4.07422 -18.5957 -6.47754l-126.727 368.062c-4.91113 13.79 -20.373 21.5215 -34.1631 16.6113c-13.791 -4.91016 -21.5215 -20.373 -16.7158 -33.7451c2.08887 -5.22363 -0.731445 -11.3877 -6.16406 -12.9551
c-5.22363 -2.08984 -11.2832 0.731445 -12.9551 6.05957c-8.56641 24.4473 4.80566 51.1924 29.2529 59.7588c24.4473 8.56738 51.1924 -4.91016 59.7588 -29.2529zM277.977 409.162l41.0586 -120.25l-129.13 -44.2969h-0.417969l-41.4766 119.832l55.2666 19.1182
l13.4775 -37.1924c1.88086 -5.22363 7.52246 -7.94043 12.7461 -6.16406v0c5.32812 1.77637 8.14844 7.62695 6.26855 12.9551l-13.0596 36.8789zM396.241 294.24l65.8184 -190.873l-191.71 -65.8184c-3.65625 2.40234 -7.73047 4.80566 -11.8047 6.47754l-62.5801 181.157z
M368.556 196.767c2.50684 4.91016 0.417969 10.9697 -4.28418 13.2686l-52.4453 25.8047c-5.11914 2.50781 -11.2832 0.417969 -13.791 -4.70117l-25.1777 -50.7744c-2.50781 -5.11914 -0.417969 -11.3877 4.59668 -14v0
c5.22363 -2.71582 11.7012 -0.625977 14.3135 4.70215l14.3125 29.252l32.1777 -93.9219c1.77637 -5.22363 7.52246 -8.04395 12.7461 -6.26855c5.22363 1.88086 8.04395 7.62695 6.26855 12.8506l-32.1777 93.9219l30.0879 -14.626
c4.80566 -2.40332 10.9697 -0.417969 13.373 4.49219z" />
    <glyph glyph-name="025-boxes" unicode="&#xf118;" 
d="M277.499 38.5791c4.24316 -11.6572 -1.78906 -24.5947 -13.4463 -28.8379c-2.48145 -0.901367 -5.06934 -1.35938 -7.69336 -1.35938c-9.42188 0 -17.9199 5.94922 -21.1436 14.8066c-4.24121 11.6582 1.79004 24.5947 13.4463 28.8389
c2.48242 0.902344 5.07031 1.36035 7.69434 1.36035c9.42188 0 17.9199 -5.9502 21.1426 -14.8086zM258.924 23.8369c3.88574 1.41504 5.89551 5.72656 4.48047 9.61133c-1.0752 2.95508 -3.9082 4.93945 -7.04883 4.93945c-0.869141 0 -1.73242 -0.15332 -2.5625 -0.456055
c-3.88574 -1.41406 -5.89648 -5.72754 -4.48242 -9.61328c1.0752 -2.9541 3.9082 -4.9375 7.0498 -4.9375c0.869141 0 1.73242 0.152344 2.56348 0.456055zM511.545 107.739c0.443359 -1.2168 0.551758 -2.47559 0.373047 -3.6709
c-0.00683594 -0.0498047 -0.0205078 -0.0976562 -0.0292969 -0.147461c-0.03125 -0.1875 -0.0654297 -0.375977 -0.111328 -0.560547c-0.03125 -0.125 -0.0742188 -0.24707 -0.112305 -0.370117c-0.0322266 -0.106445 -0.0585938 -0.213867 -0.0957031 -0.319336
c-0.0556641 -0.152344 -0.120117 -0.299805 -0.18457 -0.448242c-0.0292969 -0.0712891 -0.0556641 -0.146484 -0.0888672 -0.217773c-0.0849609 -0.180664 -0.179688 -0.355469 -0.279297 -0.530273c-0.0195312 -0.0341797 -0.0351562 -0.0712891 -0.0556641 -0.105469
c-0.111328 -0.189453 -0.233398 -0.371094 -0.360352 -0.549805c-0.0117188 -0.0185547 -0.0214844 -0.0371094 -0.0341797 -0.0546875c-0.117188 -0.160156 -0.244141 -0.314453 -0.374023 -0.466797c-0.0283203 -0.0322266 -0.0517578 -0.0664062 -0.0791016 -0.0976562
c-0.139648 -0.15625 -0.287109 -0.302734 -0.438477 -0.449219c-0.0234375 -0.0224609 -0.0458984 -0.0478516 -0.0693359 -0.0742188c-0.143555 -0.132812 -0.296875 -0.255859 -0.450195 -0.378906c-0.0380859 -0.0302734 -0.0722656 -0.0634766 -0.111328 -0.09375
c-0.12207 -0.0917969 -0.25293 -0.174805 -0.380859 -0.260742c-0.078125 -0.0517578 -0.152344 -0.109375 -0.232422 -0.15918c-0.140625 -0.0859375 -0.289062 -0.161133 -0.436523 -0.238281c-0.0761719 -0.0400391 -0.147461 -0.0849609 -0.223633 -0.12207
c-0.181641 -0.0878906 -0.370117 -0.163086 -0.561523 -0.236328c-0.0488281 -0.0195312 -0.0947266 -0.0429688 -0.144531 -0.0615234h-0.000976562c-0.000976562 -0.000976562 -0.00292969 -0.000976562 -0.00292969 -0.000976562l-188.199 -68.4385
c-0.162109 -8.61426 -2.10938 -17.1748 -5.85938 -25.2178c-7.05566 -15.1299 -19.5801 -26.6055 -35.2666 -32.3154c-6.89941 -2.51074 -14.0889 -3.7832 -21.3711 -3.7832c-26.1748 0 -49.7773 16.5322 -58.7334 41.1377
c-9.0752 24.9307 -1.21777 51.9541 17.6475 68.4561l-105.762 290.571l-89.1865 -32.168c-0.00292969 -0.000976562 -0.00585938 -0.00292969 -0.00878906 -0.00390625c-0.00488281 -0.000976562 -0.00878906 -0.00292969 -0.0126953 -0.00390625l-0.0078125 -0.00292969
c-0.0654297 -0.0234375 -0.132812 -0.0419922 -0.200195 -0.0625c-0.141602 -0.046875 -0.282227 -0.0966797 -0.425781 -0.132812c-0.133789 -0.0361328 -0.268555 -0.0625 -0.404297 -0.0908203c-0.0771484 -0.015625 -0.155273 -0.0371094 -0.233398 -0.0507812
c-0.169922 -0.0292969 -0.338867 -0.0478516 -0.508789 -0.0654297c-0.0439453 -0.00488281 -0.0878906 -0.0136719 -0.131836 -0.0175781c-0.213867 -0.0166016 -0.426758 -0.0273438 -0.638672 -0.0273438c-0.383789 0 -0.764648 0.0292969 -1.13867 0.0888672
c-0.0810547 0.0117188 -0.15918 0.0400391 -0.239258 0.0546875c-0.291992 0.0556641 -0.582031 0.113281 -0.864258 0.202148c-0.0810547 0.0253906 -0.155273 0.0654297 -0.235352 0.09375c-0.275391 0.0957031 -0.550781 0.195312 -0.8125 0.323242
c-0.0771484 0.0380859 -0.146484 0.0898438 -0.222656 0.129883c-0.255859 0.134766 -0.511719 0.273438 -0.750977 0.438477c-0.0820312 0.0566406 -0.154297 0.126953 -0.234375 0.188477c-0.220703 0.166016 -0.443359 0.332031 -0.646484 0.522461
c-0.0878906 0.0830078 -0.162109 0.182617 -0.246094 0.269531c-0.180664 0.185547 -0.364258 0.370117 -0.525391 0.577148c-0.0917969 0.117188 -0.164062 0.251953 -0.249023 0.375c-0.134766 0.197266 -0.275391 0.384766 -0.392578 0.595703
c-0.0830078 0.149414 -0.142578 0.31543 -0.214844 0.470703c-0.09375 0.201172 -0.199219 0.394531 -0.276367 0.606445l-10.2607 28.1895c-0.00195312 0.00488281 -0.00292969 0.00976562 -0.00390625 0.0146484
c-0.000976562 0.00195312 -0.00195312 0.00488281 -0.00292969 0.00683594c-0.0390625 0.108398 -0.0664062 0.219727 -0.100586 0.329102c-0.0410156 0.131836 -0.0878906 0.262695 -0.121094 0.395508c-0.0273438 0.113281 -0.0449219 0.227539 -0.0673828 0.339844
c-0.0273438 0.133789 -0.0595703 0.266602 -0.0791016 0.399414c-0.0166016 0.112305 -0.0224609 0.223633 -0.0332031 0.334961c-0.0126953 0.133789 -0.0322266 0.268555 -0.0380859 0.40332c-0.00488281 0.112305 0.000976562 0.225586 0.000976562 0.338867
c0 0.131836 -0.00488281 0.263672 0.00195312 0.395508c0.00585938 0.113281 0.0234375 0.225586 0.0341797 0.336914c0.0126953 0.128906 0.0195312 0.259766 0.0400391 0.387695c0.0166016 0.110352 0.0439453 0.220703 0.0654297 0.331055
c0.0253906 0.125977 0.046875 0.253906 0.0771484 0.37793c0.0273438 0.105469 0.0634766 0.208984 0.0947266 0.3125c0.0361328 0.125977 0.0703125 0.253906 0.114258 0.37793c0.0341797 0.0986328 0.078125 0.19043 0.117188 0.287109
c0.0517578 0.126953 0.0996094 0.254883 0.157227 0.378906c0.0419922 0.0888672 0.0917969 0.173828 0.136719 0.260742c0.0654297 0.126953 0.126953 0.254883 0.199219 0.376953c0.0478516 0.0800781 0.103516 0.15625 0.155273 0.236328
c0.0791016 0.123047 0.154297 0.24707 0.240234 0.365234c0.0517578 0.0712891 0.110352 0.136719 0.164062 0.205078c0.0957031 0.121094 0.188477 0.244141 0.290039 0.358398c0.0576172 0.0644531 0.120117 0.121094 0.179688 0.18457
c0.107422 0.113281 0.213867 0.229492 0.330078 0.335938c0.0595703 0.0556641 0.126953 0.104492 0.188477 0.160156c0.123047 0.106445 0.244141 0.213867 0.374023 0.3125c0.0605469 0.0449219 0.125977 0.0849609 0.188477 0.128906
c0.139648 0.0996094 0.277344 0.199219 0.425781 0.289062c0.0615234 0.0390625 0.128906 0.0703125 0.191406 0.106445c0.154297 0.0878906 0.308594 0.177734 0.470703 0.254883c0.0615234 0.0302734 0.12793 0.0527344 0.19043 0.0810547
c0.165039 0.0742188 0.329102 0.149414 0.501953 0.211914c0.00585938 0.00195312 0.0117188 0.00292969 0.0166016 0.00488281c0.00195312 0.000976562 0.00390625 0.000976562 0.00488281 0.00195312l96.2227 34.7041
c0.00292969 0.000976562 0.00585938 0.00292969 0.00878906 0.00390625c19.4307 7.07031 40.9902 -2.9834 48.0625 -22.4121l108.309 -297.58c5.82812 -0.113281 11.5186 -1.04297 16.9385 -2.69922l-42.7529 117.472l-44.457 122.154
c-0.69043 1.88086 -0.600586 3.91992 0.25 5.74023c0.849609 1.80957 2.34961 3.18945 4.22949 3.86914l65.6689 23.9033c0.0371094 0.0136719 0.0722656 0.0322266 0.108398 0.0458984c0.0224609 0.0078125 0.0449219 0.00976562 0.0664062 0.0185547l37.4648 13.6377
c0.0195312 0.00683594 0.0380859 0.0166016 0.0576172 0.0234375c0.0117188 0.00390625 0.0234375 0.00488281 0.0341797 0.00976562l65.7441 23.9307c0.819336 0.299805 1.68945 0.450195 2.55957 0.450195c0.392578 0 0.780273 -0.03125 1.16016 -0.0917969
c2.66113 -0.419922 4.94531 -2.25879 5.88965 -4.83984l13.6797 -37.5889c1.41016 -3.88867 -0.599609 -8.19922 -4.47949 -9.60938c-0.830078 -0.310547 -1.7002 -0.459961 -2.57031 -0.459961c-3.13965 0 -5.96973 1.98926 -7.0498 4.93945l-11.1133 30.5312
l-51.6758 -18.8066l11.1113 -30.5352c0.0869141 -0.240234 0.161133 -0.481445 0.222656 -0.723633c0.0126953 -0.0556641 0.0195312 -0.107422 0.0322266 -0.162109c0.0449219 -0.193359 0.0869141 -0.389648 0.116211 -0.583984
c0.000976562 -0.0078125 0.000976562 -0.015625 0.00195312 -0.0234375c0.208984 -1.43262 0.00390625 -2.89941 -0.624023 -4.24609c-0.849609 -1.80957 -2.34961 -3.18945 -4.22949 -3.87012l-37.5889 -13.6797
c-0.830078 -0.310547 -1.69043 -0.460938 -2.57031 -0.460938c-3.13965 0 -5.96973 1.99121 -7.04004 4.94141l-11.1162 30.5332l-51.6865 -18.8096l39.3359 -108.055l58.7178 21.3701c0.00292969 0 0.00488281 0.00195312 0.0078125 0.00292969
c0.00195312 0.000976562 0.00390625 0.000976562 0.00488281 0.000976562l96.3145 35.0537l-17.9609 49.332c-1.40918 3.87988 0.600586 8.2002 4.49023 9.60938c0.820312 0.300781 1.69043 0.450195 2.56055 0.450195c3.13965 0 5.96973 -1.98047 7.0498 -4.93066
l20.5137 -56.3682c0.000976562 -0.00292969 0.00390625 -0.00585938 0.00488281 -0.00976562l52.1709 -143.347l24.5244 8.91895c1.67285 0.609375 3.42188 0.581055 4.98535 0.0458984c0.0273438 -0.0078125 0.0546875 -0.0146484 0.0810547 -0.0244141
c0.109375 -0.0390625 0.21582 -0.0888672 0.324219 -0.132812c0.114258 -0.046875 0.231445 -0.0878906 0.34375 -0.140625c0.0146484 -0.0078125 0.0302734 -0.0166016 0.0449219 -0.0234375c1.71777 -0.81543 3.12988 -2.2793 3.83203 -4.20801zM293.215 360.873
l-23.4961 -8.55078l8.5498 -23.4883l23.4912 8.5498zM337.675 238.721l-23.4961 -8.55176l8.54883 -23.4883l23.498 8.55176zM248.407 206.233l45.707 -125.59c3.37988 -2.56348 6.49512 -5.47754 9.30469 -8.68652l149.639 54.417l-49.6055 136.286l-51.6865 -18.8105
l11.1152 -30.5322c1.41992 -3.88965 -0.589844 -8.2002 -4.47949 -9.61035l-37.5889 -13.6797c-0.830078 -0.300781 -1.69043 -0.459961 -2.56055 -0.459961c-3.14941 0 -5.97949 1.98926 -7.0498 4.93945l-11.1162 30.5332zM121.057 380.695l107.032 -294.085
c2.21191 1.12012 4.50195 2.13477 6.88867 3.00391c2.36914 0.863281 4.77441 1.56738 7.2041 2.13574l-107.033 294.075c-4.24316 11.6592 -17.1777 17.6914 -28.8379 13.4482c-0.00585938 -0.00195312 -0.0107422 -0.00292969 -0.0166016 -0.00488281
c-0.00195312 0 -0.00292969 -0.000976562 -0.00488281 -0.00195312l-89.1748 -32.1641l5.13086 -14.0957l89.1865 32.168c0.00292969 0.000976562 0.00585938 0.00292969 0.00878906 0.00390625c0.00390625 0.000976562 0.0078125 0.00195312 0.0107422 0.00292969
l0.00976562 0.00390625c0.0742188 0.0253906 0.149414 0.0439453 0.223633 0.0673828c0.166992 0.0537109 0.333984 0.110352 0.501953 0.152344c0.147461 0.0371094 0.296875 0.0625 0.444336 0.0888672c0.0976562 0.0195312 0.193359 0.0429688 0.290039 0.0585938
c0.202148 0.0292969 0.404297 0.0458984 0.606445 0.0585938c0.0429688 0.00292969 0.0859375 0.0107422 0.128906 0.0126953c0.235352 0.0117188 0.467773 0.0107422 0.700195 -0.000976562c0.0107422 -0.000976562 0.0205078 0 0.0322266 0
c1.19922 -0.0625 2.35938 -0.414062 3.38379 -1.00879c0.0136719 -0.00683594 0.0292969 -0.0136719 0.0429688 -0.0214844c0.183594 -0.109375 0.362305 -0.227539 0.536133 -0.351562c0.0214844 -0.0166016 0.0458984 -0.0292969 0.0673828 -0.0449219
c0.155273 -0.112305 0.303711 -0.235352 0.449219 -0.360352c0.0380859 -0.03125 0.0791016 -0.0605469 0.117188 -0.09375c0.131836 -0.117188 0.254883 -0.243164 0.378906 -0.369141c0.046875 -0.0478516 0.0976562 -0.0917969 0.142578 -0.140625
c0.113281 -0.121094 0.216797 -0.25 0.320312 -0.378906c0.0498047 -0.0634766 0.105469 -0.120117 0.15332 -0.18457c0.0927734 -0.120117 0.174805 -0.250977 0.259766 -0.378906c0.0527344 -0.0791016 0.110352 -0.152344 0.160156 -0.233398
c0.0722656 -0.118164 0.134766 -0.244141 0.201172 -0.367188c0.0527344 -0.0986328 0.110352 -0.193359 0.160156 -0.295898c0.0537109 -0.113281 0.0976562 -0.232422 0.146484 -0.34668c0.0488281 -0.118164 0.104492 -0.231445 0.148438 -0.351562zM299.405 10.8105
c5.36328 11.498 5.92578 24.3965 1.58594 36.3184c-6.80566 18.7041 -24.7461 31.2705 -44.6377 31.2705c-5.52734 0 -10.9912 -0.969727 -16.2412 -2.87988c-24.6104 -8.95898 -37.3457 -36.2705 -28.3877 -60.8799c6.80566 -18.7031 24.7451 -31.2686 44.6377 -31.2686
c5.52637 0 10.9912 0.96875 16.2412 2.87988c11.9219 4.33887 21.4395 13.0605 26.8018 24.5596zM317.219 45.0527l177.664 64.6064l-5.13086 14.0957l-177.661 -64.6055c1.12598 -2.21777 2.13086 -4.51562 2.99512 -6.89062
c0.865234 -2.37598 1.56348 -4.78223 2.13281 -7.20605z" />
    <glyph glyph-name="052-delivery-truck-2" unicode="&#xf133;" 
d="M509.14 186.841c1.76855 -1.83398 2.86035 -4.32324 2.86133 -7.07227v-97.8506c0 -5.63184 -4.56641 -10.1992 -10.1992 -10.1992h-32.1621c-4.66211 -20.6865 -23.1729 -36.1904 -45.248 -36.1904c-22.0742 0 -40.5859 15.5039 -45.2471 36.1904v-0.000976562h-239.251
c-4.66113 -20.6865 -23.1729 -36.1904 -45.2471 -36.1904c-22.0752 0 -40.5869 15.5039 -45.2471 36.1904h-20.0996c-5.63281 0 -10.1992 4.56738 -10.1992 10.1992v11.9189h-8.90137c-5.63281 0 -10.1992 4.56738 -10.1992 10.1992s4.56641 10.1992 10.1992 10.1992
h8.90137v224.04c0 5.63184 4.56641 10.1982 10.1992 10.1982h320.698c5.63281 0 10.1992 -4.56641 10.1992 -10.1982v-61.1787h65.1992c3.1543 0 5.97461 -1.43359 7.8457 -3.68457c0.310547 0.125977 0.496094 0.206055 0.496094 0.206055l75.7334 -86.458
s-0.128906 -0.120117 -0.332031 -0.318359zM94.6465 55.9258c14.332 0 25.9912 11.6611 25.9922 25.9922c0 14.3311 -11.6611 25.9922 -25.9922 25.9922c-14.332 0 -25.9922 -11.6611 -25.9922 -25.9922s11.6602 -25.9922 25.9922 -25.9922zM339.799 92.1182h-0.000976562
v44.9473h-300.299v-44.9473h9.89941c4.66016 20.6865 23.1719 36.1904 45.2461 36.1904c22.0762 0 40.5879 -15.5039 45.248 -36.1904h199.906zM339.799 157.463h-0.000976562v170.613h-300.299v-170.613h300.3zM435.596 240.54v-50.5723h44.2988zM424.391 55.9258
c14.332 0 25.9932 11.6611 25.9932 25.9922s-11.6611 25.9922 -25.9932 25.9922s-25.9912 -11.6611 -25.9912 -25.9922s11.6592 -25.9922 25.9912 -25.9922zM491.602 92.1182h-0.000976562v77.4531h-66.2041c-5.63379 0 -10.1992 4.56641 -10.1992 10.1982v76.9297h-55
v-164.581h18.9463c4.66113 20.6865 23.1729 36.1904 45.2471 36.1904c22.0762 0 40.5869 -15.5039 45.248 -36.1904h21.9629zM315.155 188.941c5.63281 0 10.1982 -4.56738 10.1982 -10.1992s-4.56543 -10.1992 -10.1982 -10.1992h-85.6729
c-5.63379 0 -10.1992 4.56738 -10.1992 10.1992s4.56543 10.1992 10.1992 10.1992h85.6729zM197.865 188.941c5.63281 0 10.1992 -4.56738 10.1992 -10.1992s-4.56641 -10.1992 -10.1992 -10.1992h-6.12012c-5.63281 0 -10.1992 4.56738 -10.1992 10.1992
s4.56641 10.1992 10.1992 10.1992h6.12012z" />
    <glyph glyph-name="034-box-5" unicode="&#xf121;" 
d="M511.634 107.265c1.52539 -5.69043 -1.84961 -11.541 -7.54102 -13.0625l-12.8643 -3.4502c5.18457 -5.17676 9.08105 -11.7119 11.0723 -19.1484c6.08594 -22.7412 -7.44824 -46.1953 -30.1699 -52.2881c-3.62012 -0.97168 -7.34375 -1.46387 -11.0674 -1.46387
c-19.2627 0 -36.1992 13.0156 -41.1875 31.6543c-2.01074 7.51172 -1.86914 15.0996 0.0253906 22.1152l-134.771 -36.1436c5.18164 -5.17773 9.08008 -11.7119 11.0693 -19.1484c3.04785 -11.3809 1.17773 -22.9443 -4.2998 -32.418h10.1953
c5.89062 0 10.667 -4.77637 10.667 -10.667s-4.77734 -10.667 -10.667 -10.667h-47.0947c-0.0107422 0 -0.0205078 -0.000976562 -0.03125 -0.000976562c-0.0175781 0 -0.0332031 0.000976562 -0.0498047 0.000976562h-73.9824c-5.89258 0 -10.667 4.77637 -10.667 10.667
s4.77539 10.667 10.667 10.667h37.126c-1.84277 3.18457 -3.2998 6.64062 -4.28613 10.3213c-2.01074 7.51074 -1.86914 15.0977 0.0263672 22.1133l-5.54688 -1.4873c-0.90918 -0.244141 -1.83887 -0.364258 -2.76367 -0.364258
c-1.85645 0 -3.69922 0.485352 -5.33496 1.42969c-2.45117 1.41504 -4.23828 3.74707 -4.96973 6.48145l-30.3545 113.54l-12.1406 45.3525c-0.0283203 0.105469 -0.0419922 0.210938 -0.0673828 0.317383l-31.3838 117.396l-1.62012 6.0498
c-0.00488281 0.015625 -0.00585938 0.0292969 -0.00976562 0.0429688l-22.0674 82.543l-2.73438 -0.733398c-1.03809 -13.1416 -10.1836 -24.833 -23.6152 -28.4346l-30.9092 -8.28906c-2.69531 -0.72168 -5.46875 -1.08887 -8.24805 -1.08887
c-14.4805 0 -27.2041 9.75684 -30.9453 23.7295c-0.015625 0.0585938 -0.0292969 0.116211 -0.0449219 0.175781c-4.45215 16.9951 5.6875 34.4824 22.6689 39.04l30.9102 8.29004c2.69824 0.72168 5.47168 1.08887 8.25 1.08887
c10.7637 0 20.5469 -5.39746 26.4023 -13.9062l13.0479 3.50195c2.73242 0.732422 5.64551 0.352539 8.09863 -1.06445c2.45215 -1.41504 4.23926 -3.74805 4.97168 -6.48242l22.0781 -82.584l154.534 41.4473c2.73438 0.733398 5.64648 0.349609 8.09668 -1.06543
c2.45215 -1.41406 4.23828 -3.74512 4.9707 -6.47852l30.3691 -113.44l72.0615 19.3271c2.73438 0.733398 5.64746 0.349609 8.09668 -1.06543c2.45215 -1.41504 4.23828 -3.74512 4.97168 -6.47852l39.7744 -148.582l38.2188 10.25
c5.69336 1.5332 11.5391 -1.84961 13.0645 -7.53906zM65.6719 379.085c5.67969 1.52148 9.06152 7.38672 7.54297 13.0771v0.000976562c-0.000976562 0.00390625 -0.00195312 0.00878906 -0.00195312 0.0126953c-1.24805 4.66113 -5.49805 7.91504 -10.3359 7.91504
c-0.914062 0 -1.83105 -0.12207 -2.72559 -0.362305l-30.9053 -8.28906c-5.68457 -1.52441 -9.07031 -7.39551 -7.5459 -13.0879c0.00976562 -0.0371094 0.0175781 -0.0712891 0.0283203 -0.106445c1.28027 -4.60547 5.50488 -7.81152 10.3086 -7.81152
c0.914062 0 1.83105 0.12207 2.72461 0.362305zM225.411 322.388l-20.6084 -5.52734l12.1875 -45.5205l4.92676 4.37305c2.51465 2.22754 5.92969 3.14258 9.22168 2.4707l6.46191 -1.32422zM142.987 300.278l27.6123 -103.137l144.243 38.6836l-27.6123 103.143
l-41.2109 -11.0537l16.6533 -62.209c0.954102 -3.57031 -0.00585938 -7.38281 -2.54102 -10.0723c-2.53418 -2.69141 -6.27832 -3.87793 -9.9043 -3.13574l-18.1396 3.71484l-13.8535 -12.2939c-1.97852 -1.75684 -4.50684 -2.68945 -7.08203 -2.68945
c-1.02539 0 -2.05762 0.148438 -3.06641 0.450195c-3.54199 1.0625 -6.28027 3.88477 -7.23633 7.45801l-16.6523 62.1963zM311.886 164.148l-12.1904 45.5293l-20.6094 -5.5293l12.1885 -45.5234l4.92871 4.375c2.5127 2.22852 5.92773 3.15039 9.21973 2.47168z
M260.506 -15.3555c11.3672 3.04785 18.1348 14.7861 15.0869 26.167c-2.49609 9.3252 -10.9609 15.8379 -20.583 15.8379c-1.83496 0 -3.67871 -0.243164 -5.47656 -0.720703l-0.107422 -0.0283203c-11.3369 -3.06641 -18.085 -14.7871 -15.042 -26.1514
c2.49414 -9.32031 10.9453 -15.8271 20.5586 -15.8389h0.0566406c1.8457 0.00292969 3.69824 0.25 5.50684 0.734375zM254.251 49.2832l185.495 49.7461l-37.0156 138.278l-20.6094 -5.5293l14.8486 -55.4648c1.52344 -5.69043 -1.85449 -11.5381 -7.5459 -13.0625
c-0.923828 -0.24707 -1.85352 -0.365234 -2.76465 -0.365234c-4.71191 0 -9.02148 3.14355 -10.2979 7.91113l-14.8467 55.4561l-41.209 -11.0537l16.6543 -62.2051c0.954102 -3.56934 -0.00585938 -7.38086 -2.54004 -10.0703
c-2.5332 -2.69043 -6.27637 -3.87988 -9.90332 -3.13672l-18.1406 3.71191l-13.8555 -12.2949c-1.97852 -1.75488 -4.50684 -2.6875 -7.08203 -2.6875c-1.02539 0 -2.05762 0.147461 -3.06738 0.451172c-3.54102 1.06152 -6.27832 3.88379 -7.23535 7.45703
l-16.6533 62.1973l-82.4111 -22.1025l9.33008 -34.9023l27.6738 -103.377l20.5703 5.5166l-14.8486 55.4639c-1.52344 5.68945 1.85449 11.5381 7.5459 13.0615c5.69238 1.52246 11.5381 -1.85547 13.0615 -7.5459zM466.604 39.918
c11.3672 3.04688 18.1348 14.7852 15.0889 26.165c-2.49707 9.3252 -10.9639 15.8379 -20.5869 15.8379c-1.83789 0 -3.68359 -0.243164 -5.48633 -0.723633l-0.0869141 -0.0224609c-11.3408 -3.06152 -18.0928 -14.7861 -15.0488 -26.1543
c2.49512 -9.32617 10.959 -15.8379 20.5801 -15.8379c1.85742 0 3.7207 0.249023 5.54004 0.735352zM391.753 154.559c5.69336 1.52441 11.5371 -1.8584 13.0596 -7.54883l1.07617 -4.02344c1.52246 -5.69141 -1.85645 -11.5371 -7.54883 -13.0586
c-0.922852 -0.248047 -1.84961 -0.366211 -2.76172 -0.366211c-4.71289 0 -9.02344 3.14551 -10.2988 7.91504l-1.0752 4.02246c-1.52246 5.69141 1.85645 11.5371 7.54883 13.0596zM230.48 138.07l1.07812 -4.02148c1.52539 -5.69043 -1.85156 -11.5391 -7.54102 -13.0645
c-0.924805 -0.249023 -1.85547 -0.367188 -2.76855 -0.367188c-4.70996 0 -9.01855 3.14258 -10.2959 7.9082l-1.07812 4.02246c-1.52539 5.68945 1.85156 11.5381 7.54102 13.0635c5.69629 1.5293 11.5391 -1.85059 13.0645 -7.54102zM337.842 -16.0889
c5.88965 0 10.667 -4.77539 10.667 -10.667c0 -5.89062 -4.77734 -10.667 -10.667 -10.667h-4.68652c-5.8916 0 -10.667 4.77734 -10.667 10.667c0 5.89062 4.77637 10.667 10.667 10.667h4.68652z" />
    <glyph glyph-name="063-delivery-3" unicode="&#xf13e;" 
d="M511.799 85.9551c1.83105 -10.9697 -9.1416 -21.9395 -21.9355 -21.9395c-9.1416 0 -18.1455 5.48438 -23.6318 14.626c-10.9727 23.7695 -34.7363 40.2246 -63.9922 40.2246c-34.7373 0 -62.1621 -23.7686 -71.3047 -54.8506h-133.472
c-7.31543 31.082 -36.5674 54.8506 -71.3086 54.8506c-34.7363 0 -62.1611 -23.7686 -71.3037 -54.8506h-54.8506v329.104h255.971c20.1143 0 36.5674 -16.4551 36.5674 -36.5664v-255.972h18.2832v195.635c0 12.7988 10.9727 23.7695 23.7705 23.7695h82.2764
c12.7969 0 25.5947 -7.31348 31.0811 -18.2842l54.708 -93.2461c5.49023 -10.9707 9.1416 -23.7686 9.1416 -36.5674v-85.9336zM347.389 192.001h126.155l-53.0205 91.418h-73.1348v-91.418zM402.24 100.582c31.0811 0 54.8506 -23.7686 54.8506 -54.8506
s-23.7695 -54.8506 -54.8506 -54.8506s-54.8516 23.7686 -54.8516 54.8506s23.7705 54.8506 54.8516 54.8506zM402.24 20.1348c14.6279 0 25.5947 10.9697 25.5947 25.5967s-10.9668 25.5967 -25.5947 25.5967c-14.627 0 -25.5947 -10.9697 -25.5947 -25.5967
s10.9668 -25.5967 25.5947 -25.5967zM127.985 100.582c31.0811 0 54.8506 -23.7686 54.8506 -54.8506s-23.7695 -54.8506 -54.8506 -54.8506s-54.8506 23.7686 -54.8506 54.8506s23.7695 54.8506 54.8506 54.8506zM127.985 20.1348
c14.6279 0 25.5947 10.9697 25.5947 25.5967s-10.9678 25.5967 -25.5947 25.5967s-25.5947 -10.9697 -25.5947 -25.5967s10.9668 -25.5967 25.5947 -25.5967zM118.844 45.7314c0 5.04883 4.09277 9.1416 9.1416 9.1416s9.1416 -4.09277 9.1416 -9.1416
s-4.09277 -9.1416 -9.1416 -9.1416s-9.1416 4.09277 -9.1416 9.1416zM393.098 45.7314c0 5.04883 4.09375 9.1416 9.14258 9.1416s9.1416 -4.09277 9.1416 -9.1416s-4.09277 -9.1416 -9.1416 -9.1416s-9.14258 4.09277 -9.14258 9.1416z" />
    <glyph glyph-name="022-check-1" unicode="&#xf115;" 
d="M389.468 286.91c12.8369 -12.8369 12.8369 -33.6494 0 -46.4854l-157.898 -157.897c-6.41895 -6.41797 -14.8311 -9.62598 -23.2432 -9.62598c-8.41309 0 -16.8262 3.20801 -23.2441 9.62598l-84.125 84.125c-12.8369 12.835 -12.835 33.6475 0 46.4854
c12.8359 12.8369 33.6484 12.8369 46.4854 0l60.8838 -60.8857l134.656 134.658c12.835 12.8369 33.6475 12.8369 46.4854 0zM256.001 448c141.385 0 256.001 -114.614 256.001 -256.001c0 -141.386 -114.615 -256.001 -256.001 -256.001
c-141.387 0 -256.001 114.615 -256.001 256.001c0 141.387 114.614 256.001 256.001 256.001zM256.001 1.73828c105.166 0 190.261 85.1045 190.263 190.261c0 105.168 -85.1045 190.263 -190.263 190.263c-105.168 0 -190.263 -85.1045 -190.263 -190.263
c0 -105.166 85.1045 -190.261 190.263 -190.261z" />
    <glyph glyph-name="065-cargo" unicode="&#xf140;" 
d="M305.382 286.922c9.06641 0 15.5664 -5.58984 15.5664 -14.9961v-275.136c0 -8.28125 -6.17578 -14.9961 -13.7969 -14.9961h-145.378c-5.44922 -26.375 -28.7969 -45.793 -56.2969 -45.793s-50.8438 19.418 -56.2969 45.793h-35.3867
c-7.61719 0 -13.793 6.71484 -13.793 14.9961v275.136c0 9.40625 6.5 14.9961 15.5664 14.9961c15.0859 -54.8984 77.9336 -162.851 144.906 -162.851c65.6914 0 129.042 105.112 144.909 162.851zM124.918 -25.9561c10.7383 10.7383 10.7383 28.1523 0 38.8867
c-17.2695 17.2695 -46.9375 4.98438 -46.9375 -19.4414c0 -24.4297 29.668 -36.7148 46.9375 -19.4453zM124.918 -25.9561zM465.437 133.958c26.0703 -0.578125 46.4492 -20.7773 46.4492 -46.9922v-89.9805c0 -8.28125 -6.71484 -14.9961 -14.9961 -14.9961h-10.1406
c-5.375 -26.4688 -28.7617 -45.9883 -56.3359 -45.9883s-50.9609 19.5195 -56.3359 45.9883h-10.1406c-8.26172 0 -14.9961 6.73828 -14.9961 14.9961v223.737c0 4.79297 2.02344 8.91797 5.8125 11.8555c3.79297 2.9375 8.29297 3.86328 12.9375 2.66406
c28.5547 -7.38281 52.6133 -25.5508 68.3398 -51.9443l11.5312 -19.3477h-51.668c-8.28125 0 -14.9961 -6.71484 -14.9961 -14.9961c0 -8.28516 6.71484 -14.9961 14.9961 -14.9961h69.543zM449.854 -25.9561c10.7383 10.7383 10.7383 28.1523 0 38.8867
c-17.2695 17.2695 -46.9375 4.98438 -46.9375 -19.4414c0 -24.4297 29.668 -36.7148 46.9375 -19.4453zM449.854 -25.9561zM173.297 314.262c-11.3867 -11.3867 -30.957 -3.28906 -30.957 12.8242s19.5703 24.2109 30.957 12.8242
c7.08203 -7.08203 7.08203 -18.5664 0 -25.6484zM173.297 314.262zM160.473 154.067c-23.7422 0 -55.5742 28.7266 -80.2383 65.5264c-22.8008 34.0156 -40.6719 75.7461 -40.6719 107.492c0 66.7773 54.1367 120.914 120.91 120.914
c66.7773 0 120.913 -54.1367 120.913 -120.914c0 -31.7461 -17.8711 -73.4766 -40.6709 -107.492c-24.668 -36.7998 -56.4961 -65.5264 -80.2422 -65.5264zM160.473 375.215c-26.5742 0 -48.125 -21.5508 -48.125 -48.1289c0 -26.5742 21.5508 -48.125 48.125 -48.125
c26.5781 0 48.1289 21.5508 48.1289 48.125c0 26.5781 -21.5508 48.1289 -48.1289 48.1289zM160.473 375.215z" />
    <glyph glyph-name="028-trolley-2" unicode="&#xf11b;" 
d="M487.1 70.7002l-201.699 -52.1006c-0.200195 -39.3994 -31.4004 -71.5 -71.9004 -71.5c-39.5996 0 -71.9004 32.3008 -71.9004 71.9004c0 24.5996 12.5 46.2998 31.4004 59.2998l-65.7002 277.4l-82.3994 65.7002l13.5996 15.5996l87.5 -69.9004l65.7002 -279.6
c6.89941 2.2002 14.2998 3.40039 21.8994 3.40039c32.6006 0 60.2002 -21.9004 69 -51.6006l199.301 51.6006zM213.6 -33.2002c28.2002 0 52.1006 22.9004 52.1006 52.1006c0 29.1992 -22.9004 52.0996 -52.1006 52.0996c-28.0996 0 -52.0996 -22.9004 -52.0996 -52.0996
c0 -28.1006 22.9004 -52.1006 52.0996 -52.1006zM239.7 245.2l0.399414 0.0996094l-30.6992 120.8l141.8 36.4004l30.7002 -121l37.0996 9.5l43.7998 -172l-179.3 -45.7998zM336.6 376.5l-102.199 -26.0996l25 -100.101l102.199 26.1006zM437.8 133.6l-33.3994 132.4
l-139.7 -35.4004l33.3994 -132.399z" />
    <glyph glyph-name="056-delivery-2" unicode="&#xf137;" 
d="M510.603 205.602c0.921875 -1.9873 1.39746 -4.15234 1.40137 -6.3457v-126.361c0 -8.3418 -6.76074 -15.1055 -15.1055 -15.1055h-22.1465c-7.06934 -36.2832 -39.0801 -63.7627 -77.3994 -63.7627c-38.3252 0 -70.3389 27.4775 -77.4072 63.7627h-126.071
c-7.06934 -36.2832 -39.083 -63.7627 -77.4043 -63.7627c-38.3271 0 -70.3418 27.4775 -77.4111 63.7627h-23.9531c-8.34473 0 -15.1055 6.76367 -15.1055 15.1055s6.76074 15.1055 15.1055 15.1055h23.9512c1.19629 6.13281 3.10742 12.0078 5.63672 17.5459h-29.5879
c-8.34473 0 -15.1055 6.76367 -15.1055 15.1055v254.215c0 8.3418 6.76074 15.1055 15.1055 15.1055h302.152c8.34473 0 15.1055 -6.76367 15.1055 -15.1055v-74.751h124.835c5.88477 0 11.2344 -3.41992 13.709 -8.76172zM319.94 88.002
c1.49707 7.67383 4.10547 14.9502 7.6582 21.6592c-2.70312 -2.54395 -6.33496 -4.11328 -10.3389 -4.11328h-129.025c2.5293 -5.53809 4.44336 -11.4131 5.6377 -17.5459h126.068zM30.2109 359.761v-224.004h38.6836c13.2344 10.04 29.7188 16.0117 47.5732 16.0117
s34.3359 -5.97168 47.5703 -16.0117h138.114v224.004h-271.941zM116.468 24.2393c26.8311 0 48.6592 21.8281 48.6592 48.6572c0 26.833 -21.8281 48.6631 -48.6592 48.6631c-26.835 0 -48.667 -21.8301 -48.667 -48.6631c0 -26.8291 21.832 -48.6572 48.667 -48.6572z
M397.349 24.2393c26.8291 0 48.6553 21.8281 48.6553 48.6572c0 26.833 -21.8262 48.6631 -48.6553 48.6631c-26.833 0 -48.6631 -21.8301 -48.6631 -48.6631c0 -26.8291 21.8301 -48.6572 48.6631 -48.6572zM481.789 88.002v107.929l-34.2422 73.9736h-115.182v-149.253
c0 -1.34082 -0.193359 -2.63379 -0.519531 -3.87305c14.1729 21.0869 38.2432 34.9922 65.5029 34.9922c38.3232 0 70.3301 -27.4795 77.3994 -63.7686h7.04102zM425.096 256.058c5.83496 0 11.1484 -3.35938 13.6494 -8.63184l19.4619 -41.0283
c1.24414 -2.19531 1.95508 -4.7334 1.95508 -7.4375c0 -8.34277 -6.76074 -15.1055 -15.1045 -15.1055h-0.0410156h-83.4375c-8.34375 0 -15.1055 6.7627 -15.1055 15.1055v41.9922c0 8.34277 6.76172 15.1055 15.1055 15.1055h63.5166zM376.685 214.066h44.4463
l-5.58789 11.7822h-38.8584v-11.7822z" />
    <glyph glyph-name="053-delivery-1" unicode="&#xf134;" 
d="M503.467 291.599c4.71289 0 8.5332 -3.82031 8.5332 -8.5332c0 -4.71191 -3.82031 -8.5332 -8.5332 -8.5332h-73.3018v-29.0986h9.64258c4.71289 0 8.53418 -3.82031 8.53418 -8.5332s-3.82129 -8.5332 -8.53418 -8.5332h-9.64258v-29.1846h55.126
c4.71191 0 8.5332 -3.82031 8.5332 -8.5332c0 -4.71191 -3.82129 -8.5332 -8.5332 -8.5332h-55.126v-77.9092c0 -9.75586 -7.9082 -17.6641 -17.6641 -17.6641h-52.7354c-3.53027 -18.5498 -18.0381 -33.0566 -36.5869 -36.5869
c-24.9551 -4.74707 -49.0332 11.6318 -53.7812 36.5869h-111.616c-1.83008 0.0224609 -3.64551 0.338867 -5.37598 0.938477c-1.13672 -0.583008 -2.3916 -0.904297 -3.66895 -0.938477h-24.918c-3.5293 -18.5498 -18.0371 -33.0566 -36.5859 -36.5869
c-24.9551 -4.74707 -49.0342 11.6318 -53.7822 36.5869h-24.917c-4.71289 0 -8.5332 3.82031 -8.5332 8.5332v95.5732c0 4.71289 3.82031 8.5332 8.5332 8.5332h20.8213l34.6455 60.502c1.53027 2.65039 4.3623 4.27832 7.42383 4.2666h68.7793v53.248
c0 9.75586 7.9082 17.6641 17.6631 17.6641h254.635c9.75586 0 17.6641 -7.9082 17.6641 -17.6641v-25.6006h73.3018zM76.373 246.543l-27.3066 -47.3604h91.1367v47.3604h-63.8301zM78.6777 66.1484c16.0234 0 29.0127 12.9893 29.0127 29.0127
c0 16.0244 -12.9893 29.0137 -29.0127 29.0137s-29.0137 -12.9893 -29.0137 -29.0137c0 -16.0234 12.9902 -29.0127 29.0137 -29.0127h-0.0859375h0.0859375zM123.818 103.695h16.3848v78.4209h-123.137v-78.4209h16.3838c3.53027 18.5488 18.0381 33.0566 36.5869 36.5859
c24.9551 4.74805 49.0342 -11.6318 53.7812 -36.5859zM314.709 66.1484c16.0234 0 29.0137 12.9893 29.0137 29.0127c0 16.0244 -12.9902 29.0137 -29.0137 29.0137s-29.0127 -12.9893 -29.0127 -29.0137c0 -16.0234 12.9893 -29.0127 29.0127 -29.0127h-0.0849609
h0.0849609zM413.184 291.258v25.5996l-255.231 0.597656l-0.597656 -213.333l112.128 -0.512695c3.53027 18.5498 18.0371 33.0576 36.5869 36.5869c24.9551 4.74805 49.0332 -11.6318 53.7812 -36.5869h52.8213v78.4219h-58.5381
c-4.7041 0.00585938 -8.51562 3.81738 -8.52246 8.52148c-0.00585938 4.71191 3.80957 8.53809 8.52246 8.54492h58.709v29.1836h-104.192c-4.71191 0 -8.5332 3.82129 -8.5332 8.5332c0 4.71289 3.82129 8.53418 8.5332 8.53418h104.363v28.8428h-40.6191
c-4.71191 0 -8.5332 3.82031 -8.5332 8.5332c0 4.71191 3.82129 8.5332 8.5332 8.5332h40.7891z" />
    <glyph glyph-name="006-check" unicode="&#xf105;" 
d="M256 448c141.164 0 256 -114.836 256 -256s-114.836 -256 -256 -256s-256 114.836 -256 256s114.836 256 256 256zM385.75 246.25c8.33984 8.34375 8.33984 21.8242 0 30.1641c-8.34375 8.34375 -21.8242 8.34375 -30.1641 0l-123.586 -123.582l-54.25 54.25
c-8.34375 8.34375 -21.8242 8.34375 -30.1641 0c-8.34375 -8.33984 -8.34375 -21.8242 0 -30.1641l69.332 -69.332c4.16016 -4.16016 9.62109 -6.25391 15.082 -6.25391s10.9219 2.09375 15.082 6.25391zM385.75 246.25z" />
    <glyph glyph-name="024-box" unicode="&#xf117;" 
d="M510.071 194.84c1.53125 -1.77344 2.19531 -4.14062 1.82812 -6.4541c-0.359375 -2.31152 -1.72656 -4.35059 -3.72656 -5.57715l-56.9062 -34.7764v-82.4424c0 -10.125 -5.45312 -19.5781 -14.2266 -24.6562l-162.297 -93.7031
c-4.2334 -2.4375 -8.96191 -3.67188 -13.7061 -3.75586c-0.0839844 -0.00390625 -0.155273 -0.0488281 -0.239258 -0.0488281c-0.0439453 0 -0.0800781 0.0244141 -0.124023 0.0244141c-0.0478516 0 -0.09375 -0.00878906 -0.141602 -0.00878906
c-4.91406 0 -9.82031 1.26562 -14.2031 3.78906l-162.797 93.9834c-8.47754 4.91504 -13.7344 14.0322 -13.7344 23.8047v74.0088c0 0.84082 0.238281 1.6084 0.477539 2.37012l-56.0322 31.1299c-2.02441 1.12402 -3.46094 3.0625 -3.9375 5.31934
c-0.485352 2.2666 0.03125 4.62598 1.42188 6.46875l56.2402 74.9863l-65.1699 55.8584c-1.96875 1.68652 -3 4.21875 -2.76562 6.80469c0.242188 2.58496 1.71875 4.89062 3.95996 6.18652l192.328 111.345c3.13281 1.81934 7.10156 1.29688 9.66406 -1.26562
l54.8389 -54.8389l55.3418 54.8623c2.53906 2.50781 6.41406 3.03906 9.51562 1.3125l182.203 -101.22c2.10059 -1.16406 3.56934 -3.20996 3.99219 -5.57715c0.421875 -2.36719 -0.234375 -4.79688 -1.80469 -6.61816l-56.2754 -65.6553zM252.798 173.01v184.403
l-158.058 -96.5908zM268.798 357.738v-185.024l158.589 88.1084zM323.165 422.66l-49.5488 -49.1143l168.014 -102.673l49.918 58.248zM199.017 422.574l-177.242 -102.617l57.8711 -49.6035l168.575 103.016zM81.0723 250.117l-51.04 -68.0586l168.054 -93.3672
l50.7314 68.2324zM91.54 55.0664l161.258 -93.0977v173.486l-46.0469 -61.9365c-1.55469 -2.09277 -3.96875 -3.22559 -6.43066 -3.22559c-1.31934 0 -2.64746 0.328125 -3.87402 1.00781l-110.648 61.4727v-67.7539c0 -4.08594 2.20312 -7.89844 5.74219 -9.95312z
M435.267 65.5898v72.666l-109.297 -66.791c-1.29688 -0.789062 -2.74316 -1.17188 -4.16406 -1.17188c-2.44531 0 -4.84375 1.11719 -6.40625 3.20312l-46.6016 62.1338v-173.358l160.234 92.5127c3.84375 2.22754 6.23438 6.36719 6.23438 10.8057zM323.837 88.9102
l167.977 102.656l-50.3691 58.7686l-168.48 -93.6035z" />
    <glyph glyph-name="040-trolley-5" unicode="&#xf127;" 
d="M482.685 122.553l8.46582 -19.7529l-128.444 -53.5098c0.94043 -5.64355 1.46289 -11.2871 1.46289 -17.1396c0 -52.9873 -43.2676 -96.1504 -95.1055 -96.1504c-52.9863 0 -95.1045 43.1631 -95.1045 96.1504c0 31.7715 15.2588 60.0938 38.8779 77.6514
l-125.309 309.145l-75.666 -31.3535l-8.6748 20.4844l85.3857 35.6377c5.64355 2.2998 10.9736 -0.626953 14.0049 -5.43457l129.176 -317.714c11.3916 4.91211 23.9326 7.62988 37.2051 7.62988c39.5059 0 72.9492 -24.0381 87.3721 -58.2129zM268.959 -42.4707
c40.0283 0 73.4717 33.4434 73.4717 74.5166c0 41.0723 -33.5479 74.5166 -73.4717 74.5166c-40.0273 0 -73.4707 -33.4443 -73.4707 -74.5166c0 -41.0732 33.5479 -74.5166 73.4707 -74.5166zM508.812 238.455l-205.364 -104.824l-103.675 209.545l205.364 104.824z
M395.313 418.842l-75.1436 -38.5654l88.9385 -168.263l70.5449 36.1611zM300.939 370.453l-71.9033 -36.9971l84.2363 -170.667l76.6064 39.2959z" />
    <glyph glyph-name="042-fast-delivery" unicode="&#xf129;" 
d="M511.993 186.953c0 -0.101562 0.00878906 -0.200195 0.00683594 -0.301758c-0.00488281 -0.169922 -0.0283203 -0.334961 -0.0400391 -0.50293c-0.00683594 -0.111328 -0.00195312 -0.220703 -0.0117188 -0.331055l-7.38477 -81.8027
c-1.76953 -19.6172 -19.1807 -35.5781 -38.8125 -35.5781h-7.53613c-5.66211 -24.9297 -28.2188 -43.7666 -54.6025 -43.7666c-26.3857 0 -47.9551 18.8369 -52.3145 43.7666h-1.87793c-9.07129 0 -17.3789 3.29395 -23.6465 9.30957
c-6.85449 -5.7793 -15.5938 -9.30957 -24.8252 -9.30957h-114.173c-5.66211 -24.9297 -28.2188 -43.7666 -54.6025 -43.7666s-47.9541 18.8369 -52.3135 43.7686h-9.14941c-9.84863 0 -18.8047 3.87207 -25.2168 10.9072
c-6.42773 7.04785 -9.47656 16.3584 -8.58691 26.2188l4.14746 43.4043h-10.6055c-6.69336 0 -11.9756 5.4248 -11.7998 12.1172c0.175781 6.69336 5.74219 12.1182 12.4346 12.1182h12.2891v0.0136719h146.254c10.0381 0 18.3896 8.1377 18.6523 18.1768
c0.240234 9.18262 -6.37793 16.7549 -15.1914 17.9824h-127.484c-6.69336 0 -11.9766 5.4248 -11.8008 12.1182c0.175781 6.69238 5.74316 12.1172 12.4355 12.1172h129.004c9.9707 0.0839844 18.2383 8.18262 18.5 18.1699
c0.239258 9.09473 -6.25 16.6064 -14.9365 17.9443h-187.118c-6.62598 0 -11.8564 5.37012 -11.6826 11.9961c0.172852 6.62598 5.68555 11.9971 12.3115 11.9971h141.34c-0.00878906 0.0224609 -0.0166016 0.046875 -0.0253906 0.0712891h48.1309
c9.36914 0 17.1631 7.5957 17.4092 16.9648c0.245117 9.36914 -7.15137 16.9648 -16.5215 16.9648h-144.296l2.53809 20.3311c0.607422 6.35254 6.0166 11.2793 12.3848 11.2793h253.263c9.84766 0 18.8027 -3.87402 25.2168 -10.9072
c6.42578 -7.04785 9.47559 -16.3584 8.58691 -26.2197l-3.11328 -24.6768l81.6016 -0.0175781c4.44043 -0.000976562 8.46191 -2.43066 10.4785 -6.33301l47.7959 -92.4082h3.09473c6.49414 0 11.6465 -5.1123 11.7871 -11.5283
c0.00195312 -0.0957031 0.00683594 -0.191406 0.00683594 -0.287109zM132.808 48.9053c16.7041 0 30.6494 13.5889 31.0869 30.2939s-12.7959 30.2949 -29.501 30.2949c-16.7041 0 -30.6504 -13.5898 -31.0879 -30.2949s12.7979 -30.2939 29.502 -30.2939zM404.247 48.9053
c16.7041 0 30.6494 13.5889 31.0869 30.2939c0.438477 16.7051 -12.7959 30.2949 -29.501 30.2949c-16.7041 0 -30.6504 -13.5898 -31.0879 -30.2949c-0.436523 -16.7051 12.7979 -30.2939 29.502 -30.2939zM480.42 105.564l6.22363 68.9678h-68.2695
c-9.84961 0 -18.8076 3.875 -25.2207 10.9111c-6.42578 7.04785 -9.47363 16.3584 -8.58301 26.2188l5.56152 61.6221l-35.0918 0.00683594l-15.2793 -169.275c-0.280273 -3.10547 0.626953 -5.97852 2.55176 -8.08984c1.91406 -2.09863 4.66211 -3.25293 7.74219 -3.25293
h2.49512c6.63086 23.5723 28.498 41.0576 53.917 41.0576c25.4199 0 46.3711 -17.4854 51.7686 -41.0576h8.15234c6.97559 0 13.4023 5.90332 14.0322 12.8916z" />
    <glyph glyph-name="046-truck" unicode="&#xf12d;" 
d="M119.467 110.933c28.2363 0 51.2002 -22.9629 51.2002 -51.1992c0 -28.2373 -22.9629 -51.2002 -51.2002 -51.2002c-28.2363 0 -51.2002 22.9629 -51.2002 51.2002c0 28.2363 22.9639 51.1992 51.2002 51.1992zM119.467 25.5996
c18.8242 0 34.1328 15.3096 34.1328 34.1338c0 18.8232 -15.3086 34.1328 -34.1328 34.1328s-34.1328 -15.3086 -34.1328 -34.1328s15.3076 -34.1338 34.1328 -34.1338zM409.6 110.933c28.2373 0 51.2002 -22.9629 51.2002 -51.1992
c0 -28.2373 -22.9629 -51.2002 -51.2002 -51.2002c-28.2363 0 -51.1992 22.9629 -51.1992 51.2002c0 28.2363 22.9629 51.1992 51.1992 51.1992zM409.6 25.5996c18.8252 0 34.1338 15.3096 34.1338 34.1338c0 18.8232 -15.3086 34.1328 -34.1338 34.1328
c-18.8232 0 -34.1328 -15.3086 -34.1328 -34.1328s15.3086 -34.1338 34.1328 -34.1338zM510.643 158.216c0.888672 -1.37305 1.35742 -2.98535 1.35645 -4.61621v-93.8662c0 -4.71973 -3.81445 -8.5332 -8.5332 -8.5332h-51.2002v17.0654h42.667v82.8252l-72.9258 113.442
h-80.6738v-196.266h25.5996v-17.0664h-34.1328c-4.71875 0 -8.5332 3.81348 -8.5332 8.5332v213.333c0 4.70996 3.81445 8.53223 8.5332 8.53223h93.8662c2.90234 0 5.60742 -1.47559 7.17676 -3.91699zM375.467 170.667v0.000976562h119.467v-17.0674h-128
c-4.71875 0 -8.53223 3.81445 -8.53223 8.5332v76.7998c0 4.70996 3.81348 8.5332 8.53223 8.5332h76.8008v-17.0664h-68.2676v-59.7334zM332.8 341.333c4.71875 0 8.5332 -3.82324 8.5332 -8.5332v-273.066c0 -4.71973 -3.81445 -8.5332 -8.5332 -8.5332h-170.667v17.0664
h162.134v256h-307.199v-256h59.7324v-17.0664h-68.2666c-4.70996 0 -8.5332 3.81348 -8.5332 8.5332v273.066c0 4.70996 3.82324 8.5332 8.5332 8.5332h324.267zM8.5332 85.333v17.0674h51.2002v-17.0674h-51.2002zM179.2 85.333v17.0674h145.066v-17.0674h-145.066z
M469.333 85.333v17.0674h34.1328v-17.0674h-34.1328zM34.1328 290.133v17.0674h298.667v-17.0674h-298.667zM110.933 51.2002v17.0664h17.0674v-17.0664h-17.0674zM401.067 51.2002v17.0664h17.0664v-17.0664h-17.0664zM34.1328 358.4v17.0664h119.467v-17.0664h-119.467z
M0 358.4v17.0664h17.0674v-17.0664h-17.0674z" />
    <glyph glyph-name="043-fast-delivery-1" unicode="&#xf12a;" 
d="M503.673 204.421c6.98828 -8.32812 9.70898 -19.3066 7.66309 -30.9141l-15.0781 -85.5098c-0.675781 -3.83203 -4.00391 -6.625 -7.89453 -6.625h-27.5254c-0.0898438 -0.639648 -0.178711 -1.28125 -0.291992 -1.92578
c-4.80078 -27.2295 -30.9043 -49.3799 -58.1875 -49.3799c-13.708 0 -25.7734 5.38086 -33.9736 15.1533c-8.17578 9.74219 -11.4414 22.5537 -9.26758 36.1514h-162.331c-0.0898438 -0.639648 -0.178711 -1.28125 -0.291992 -1.92578
c-4.80078 -27.2295 -30.9043 -49.3799 -58.1885 -49.3799c-13.708 0 -25.7725 5.38086 -33.9727 15.1533c-8.1748 9.74121 -11.4414 22.5527 -9.26758 36.1514h-41.7744c-4.60156 0 -8.86914 1.93945 -11.707 5.32227c-2.86621 3.41602 -4.04395 8.02246 -3.23145 12.6367
l2.86523 16.2451h-33.2012c-4.42773 0 -8.0166 3.58984 -8.0166 8.0166c0 4.42773 3.58984 8.01758 8.0166 8.01758h85.5098c4.42773 0 8.0166 -3.59082 8.0166 -8.01758c0 -4.42773 -3.58984 -8.0166 -8.0166 -8.0166h-36.0293l-3.2041 -18.1699l45.9785 -0.000976562
c9.92676 19.8232 31.1318 34.2041 53.1104 34.2041c13.708 0 25.7734 -5.38184 33.9736 -15.1543c4.62012 -5.50586 7.66992 -11.9941 9.0625 -19.0488h148.402l10.8936 61.7822c0.768555 4.36133 4.92773 7.27344 9.28613 6.50391
c4.36133 -0.768555 7.27148 -4.92676 6.50293 -9.28613l-10.4033 -58.999h3.22363c9.92676 19.8232 31.1318 34.2041 53.1104 34.2041c13.707 0 25.7734 -5.38184 33.9727 -15.1543c4.62109 -5.50488 7.66992 -11.9941 9.0625 -19.0488h21.165l6.21973 35.2725h-7.54785
c-6.8291 0 -13.126 2.83496 -17.2734 7.78027c-4.20605 5.0127 -5.92188 11.8398 -4.70703 18.7305l3.01465 17.1016c0.675781 3.83203 4.00391 6.625 7.89551 6.625h26.6289c-0.364258 4.25879 -1.87793 8.10938 -4.47363 11.2021
c-3.77051 4.49316 -9.49609 6.96777 -16.1221 6.96875h-0.0107422h-0.0107422h-95.8662l-1.84766 -10.4785c-0.768555 -4.36035 -4.93164 -7.27051 -9.28613 -6.50293c-4.36133 0.767578 -7.27246 4.92578 -6.50293 9.28516l25.4805 144.511l-288.701 0.000976562
c-0.762695 0 -1.99414 -0.970703 -2.16309 -1.92773l-25.6328 -145.366c-0.68457 -3.88965 -4.06738 -6.62598 -7.88477 -6.62598c-0.462891 0 -0.930664 0.0400391 -1.40039 0.123047c-4.36035 0.767578 -7.27148 4.92578 -6.50293 9.28516l25.6309 145.367
c1.50098 8.51074 9.38672 15.1758 17.9541 15.1758h289.704c4.60254 0 8.86914 -1.93945 11.707 -5.32129c2.86621 -3.41602 4.04492 -8.02344 3.23145 -12.6377l-2.86523 -16.2441h58.8545c9.18848 0 17.2998 -3.6377 22.8398 -10.2393
c5.54688 -6.60938 7.80078 -15.6572 6.18457 -24.8232l-1.50781 -8.55078c-0.671875 -3.80762 -3.96094 -6.58496 -7.81738 -6.62207l3.90918 -53.0664c8.32422 -1.54102 15.585 -5.66406 20.9082 -12.0078zM382.21 217.117h84.4297l-3.8584 52.375h-71.3359z
M472.391 287.451c0.804688 4.55371 -0.147461 8.71973 -2.67773 11.7334c-2.43945 2.90918 -6.18945 4.51172 -10.5566 4.51172h-61.6816l-3.20312 -18.1709h77.7793zM180.705 82.2266c1.61719 9.1709 -0.382812 17.665 -5.63086 23.918
c-5.10156 6.0791 -12.8057 9.42773 -21.6914 9.42773c-19.8662 0 -38.8857 -16.207 -42.3984 -36.1299c-1.61719 -9.16992 0.382812 -17.6641 5.63086 -23.9189c5.10059 -6.07812 12.8047 -9.42676 21.6904 -9.42676c19.8662 0 38.8877 16.207 42.3994 36.1299z
M444.756 82.2266c1.61719 9.1709 -0.382812 17.665 -5.63086 23.9199c-5.10059 6.07812 -12.8057 9.42676 -21.6914 9.42676c-19.8652 0 -38.8867 -16.207 -42.3984 -36.1299c-1.61719 -9.16992 0.382812 -17.6641 5.63086 -23.9189
c5.10059 -6.0791 12.8047 -9.42773 21.6914 -9.42773c19.8652 0 38.8857 16.207 42.3984 36.1299zM490.681 148.708l3.2041 18.1699h-17.9229l-1.84766 -10.4766c-0.396484 -2.24316 0.0302734 -4.24609 1.2002 -5.64062c1.12695 -1.3418 2.85254 -2.05176 4.99121 -2.05176
v-0.000976562h10.375zM159.06 92.0811c2.86719 -3.41699 4.04395 -8.02344 3.23047 -12.6377c-1.50098 -8.50977 -9.38672 -15.1758 -17.9541 -15.1758c-4.60156 0 -8.86914 1.94043 -11.707 5.32227c-2.86621 3.41602 -4.04395 8.02344 -3.23047 12.6367
c1.50098 8.51172 9.38672 15.1768 17.9531 15.1768c4.60352 0 8.87012 -1.94043 11.708 -5.32227zM423.111 92.0811c2.86621 -3.41699 4.04492 -8.02344 3.23047 -12.6377c-1.50098 -8.50977 -9.38672 -15.1758 -17.9541 -15.1758
c-4.60156 0 -8.86914 1.94043 -11.707 5.32227c-2.86621 3.41699 -4.04297 8.02344 -3.22949 12.6377c1.5 8.51074 9.38574 15.1758 17.9531 15.1758c4.60059 0 8.86816 -1.94043 11.707 -5.32227zM323.374 131.607c4.42676 0 8.01562 -3.58984 8.0166 -8.01758
c0 -4.42773 -3.58984 -8.0166 -8.0166 -8.0166h-101.583c-4.42773 0 -8.0166 3.58984 -8.0166 8.0166c0 4.42773 3.58984 8.01758 8.0166 8.01758h101.583zM179.036 165.811c4.42773 0 8.0166 -3.58887 8.0166 -8.0166s-3.58984 -8.0166 -8.0166 -8.0166h-147.886
c-4.42969 0 -8.01758 3.58984 -8.01758 8.0166c0 4.42773 3.58984 8.0166 8.01758 8.0166h147.886zM332.127 198.064c1.89844 -1.63965 2.91797 -4.07324 2.75781 -6.57812c-0.160156 -2.50391 -1.48047 -4.78809 -3.57324 -6.17188l-38.7266 -25.6533
c-1.3623 -0.90332 -2.90039 -1.33496 -4.41992 -1.33496c-2.59766 0 -5.14844 1.26074 -6.69043 3.58984c-2.44434 3.69141 -1.43555 8.66602 2.25684 11.1104l16.5342 10.9541h-198.188c-4.42773 0 -8.01758 3.58984 -8.01758 8.0166
c0 4.42773 3.59082 8.0166 8.01758 8.0166h203.272l-13.3877 11.5723c-3.34961 2.89648 -3.71875 7.95801 -0.823242 11.3076c2.89648 3.35059 7.95801 3.71777 11.3086 0.823242z" />
    <glyph glyph-name="003-tick-inside-circle" unicode="&#xf102;" 
d="M151.04 240.64l79.3604 -79.3594l220.159 220.16l35.8408 -35.8408l-256 -256l-115.2 115.2zM460.8 192h51.2002c0 -140.8 -115.2 -256 -256 -256s-256 115.2 -256 256s115.2 256 256 256c33.2803 0 66.5596 -7.67969 97.2812 -17.9199l-40.9609 -40.96
c-17.9199 5.12012 -35.8398 7.67969 -56.3203 7.67969c-112.64 0 -204.8 -92.1602 -204.8 -204.8s92.1602 -204.8 204.8 -204.8s204.8 92.1602 204.8 204.8z" />
    </font>
</defs>
</svg>
